+ Reply to Thread
Results 1 to 3 of 3
  1. #1
    Administrators Duckload.us's Avatar
    Join Date
    Dec 2010
    Posts
    102,917
    Thanks
    9
    Thanked 105,458 Times in 50,053 Posts

    Question [ฝรั่ง]- [ 4K Ultra HD ] • Hellboy II : The Golden Army (2008) เฮลล์บอย 2 ฮีโร่พันธุ์นรก• [เสียงไทย 5.1 + เสียงอังกฤษ DTS-X.7.1]• [บรรยายไทย + อังกฤษ]• [เสียงไทย + ซับไทย PGS From Blu-ray Master คมชัด]



    Hellboy II : The Golden Army (2008) :เฮลล์บอย (รอน เพิร์ลแมน) พร้อมลุยเมื่อได้รับคำสั่งจากหน่วยงานลับสุดยอด สำนักงานค้นคว้าและป้องกันเหตุผิดธรรมชาติ หรือบีพีอาร์ดี ให้หยุดยั้งเจ้าชาย นูอาดา แห่งยมโลก (ลุก กอสส์) ที่วางแผนปลุกกองทัพนักฆ่าที่จะกลับมาทวงสิ่งที่เคยเ ป็นของประชากรของเขา หลังจากสัญญาณสงบศึกอันเก่าแก่ระหว่างมนุษยชาติกับเห ล่าลูกหลานของโลกถูก ทำลาย เฮลล์บอยปฏิบัติการกู้โลกครั้งนี้ร่วมกับแฟนสาวพลังไ ฟของเขา ลิซ เชอร์แมน (เซลม่า แบลร์) และสหายคนอื่นๆ ได้แก่ มนุษย์น้ำผู้หยั่งรู้จิตใจผู้อื่น เอ๊บ ซาเปียน (ดั๊ก โจนส์) เจ้าหน้าที่บีพีอาร์ดี ทอม แมนนิ่ง (เจฟฟรีย์ แทมเบอร์) พ่อบุญธรรมของเฮลล์บอย ศาสตราจารย์เทรเวอร์ บรูม (จอห์น เฮิร์ต) และ โยฮันน์ เคร้าส์ (จอห์น อเล็กซานเดอร์, เจมส์ ด็อดด์, ให้เสียงโดย เซ็ธ แม็กฟาร์เลน) ทางฝั่งเจ้าชายนูอาดาก็มีผู้คอยคานอำนาจในการดำเนินต ามแผนชั่วร้ายของเขา อยู่ ได้แก่ คู่แฝดของเขา เจ้าหญิงผู้เลอโฉม นูอาลา (แอนนา วอลตัน) พระบิดาที่ทุกข์ทรมานของพวกเขา กษัตริย์บาเลอร์ (รอย โดทริซ) และมือขวาของเจ้าชายนูอาดาที่ชื่อ มิสเตอร์วิงก์ (ไบรอัน สตีล) ในศึกครั้งนี้ บีพีอาร์ดีต้องเดินทางไปมาระหว่างโลกบนผิวโลกของมนุษ ย์ และโลกมหัศจรรย์ที่เคยถูกซ่อนไว้ ซึ่งเป็นดินแดนที่สิ่งมีชีวิตสุดมหัศจรรย์เหล่านี้อา ศัยอยู่ เฮลล์บอยเป็นสิ่งมีชีวิตที่อาศัยอยู่ในทั้งสองโลก แต่กลับไม่เป็นที่ยอมรับในโลกใดเลย เขาจะต้องเลือกระหว่างชีวิตที่เขารู้จัก กับชะตากรรมปริศนาที่มีเสน่ห์ล่อใจ!!!


    Format : Matroska
    Format version : Version 4
    File size : 54.8 GiB
    Duration : 1 h 59 min
    Overall bit rate mode : Variable
    Overall bit rate : 65.6 Mb/s
    Movie name : Hellboy.II.The.Golden.Army.2008.2160p.BluRay.REMUX .HEVC.DTS-X.7.1-FGT
    Encoded date : UTC 2019-05-10 01:26:27
    Writing application : mkvmerge v33.0.0 ('A Little Bit of Madness') 64-bit
    Writing library : libebml v1.3.7 + libmatroska v1.5.0
    Cover : Yes
    Attachments : small_cover.jpg / small_cover_land.jpg / cover.jpg / cover_land.jpg

    Video
    ID : 1
    Format : HEVC
    Format/Info : High Efficiency Video Coding
    Commercial name : HDR10
    Format profile : Main [email protected]@High
    Codec ID : V_MPEGH/ISO/HEVC
    Duration : 1 h 59 min
    Bit rate : 53.0 Mb/s
    Width : 3 840 pixels
    Height : 2 160 pixels
    Display aspect ratio : 16:9
    Frame rate mode : Constant
    Frame rate : 23.976 (24000/1001) FPS
    Color space : YUV
    Chroma subsampling : 4:2:0 (Type 2)
    Bit depth : 10 bits
    Bits/(Pixel*Frame) : 0.267
    Stream size : 44.3 GiB (81%)
    Title : Hellboy.II.The.Golden.Army.2008.2160p.BluRay.REMUX .HEVC.DTS-X.7.1-FGT
    Language : English
    Default : No
    Forced : No
    Color range : Limited
    Color primaries : BT.2020
    Transfer characteristics : PQ
    Matrix coefficients : BT.2020 non-constant
    Mastering display color primaries : Display P3
    Mastering display luminance : min: 0.0050 cd/m2, max: 1000 cd/m2
    Maximum Content Light Level : 1000 cd/m2
    Maximum Frame-Average Light Level : 98 cd/m2

    Audio 1
    ID : 2
    Format : DTS XLL X
    Format/Info : Digital Theater Systems
    Commercial name : DTS-HD Master Audio
    Codec ID : A_DTS
    Duration : 1 h 59 min
    Bit rate mode : Variable
    Bit rate : 7 374 kb/s
    Channel(s) : 8 channels
    Channel(s)_Original : Object Based
    Channel layout : Object Based
    Sampling rate : 48.0 kHz
    Frame rate : 93.750 FPS (512 SPF)
    Bit depth : 24 bits
    Stream size : 6.16 GiB (11%)
    Title : Hellboy.II.The.Golden.Army.2008.2160p.BluRay.REMUX .HEVC.DTS-X.7.1-FGT
    Language : English
    Default : Yes
    Forced : No

    Audio 2
    ID : 3
    Format : DTS
    Format/Info : Digital Theater Systems
    Codec ID : A_DTS
    Duration : 1 h 59 min
    Bit rate mode : Constant
    Bit rate : 768 kb/s
    Channel(s) : 6 channels
    Channel layout : C L R Ls Rs LFE
    Sampling rate : 48.0 kHz
    Frame rate : 93.750 FPS (512 SPF)
    Bit depth : 24 bits
    Compression mode : Lossy
    Stream size : 657 MiB (1%)
    Title : Hellboy.II.The.Golden.Army.2008.2160p.BluRay.REMUX .HEVC.DTS-X.7.1-FGT
    Language : French
    Default : No
    Forced : No

    Audio 7
    ID : 8
    Format : AC-3
    Format/Info : Audio Coding 3
    Commercial name : Dolby Digital
    Codec ID : A_AC3
    Duration : 1 h 59 min
    Bit rate mode : Constant
    Bit rate : 192 kb/s
    Channel(s) : 2 channels
    Channel layout : L R
    Sampling rate : 48.0 kHz
    Frame rate : 31.250 FPS (1536 SPF)
    Bit depth : 16 bits
    Compression mode : Lossy
    Stream size : 164 MiB (0%)
    Title : Hellboy.II.The.Golden.Army.2008.2160p.BluRay.REMUX .HEVC.DTS-X.7.1-FGT
    Language : English
    Service kind : Complete Main
    Default : No
    Forced : No

    Audio 8
    ID : 9
    Format : AC-3
    Format/Info : Audio Coding 3
    Commercial name : Dolby Digital
    Codec ID : A_AC3
    Duration : 1 h 59 min
    Bit rate mode : Constant
    Bit rate : 192 kb/s
    Channel(s) : 2 channels
    Channel layout : L R
    Sampling rate : 48.0 kHz
    Frame rate : 31.250 FPS (1536 SPF)
    Bit depth : 16 bits
    Compression mode : Lossy
    Stream size : 164 MiB (0%)
    Title : Hellboy.II.The.Golden.Army.2008.2160p.BluRay.REMUX .HEVC.DTS-X.7.1-FGT
    Language : English
    Service kind : Complete Main
    Default : No
    Forced : No

    Audio 9
    ID : 30
    Format : DTS
    Format/Info : Digital Theater Systems
    Codec ID : A_DTS
    Duration : 1 h 59 min
    Bit rate mode : Constant
    Bit rate : 768 kb/s
    Channel(s) : 6 channels
    Channel layout : C L R Ls Rs LFE
    Sampling rate : 48.0 kHz
    Frame rate : 93.750 FPS (512 SPF)
    Bit depth : 24 bits
    Compression mode : Lossy
    Delay relative to video : 6 ms
    Stream size : 657 MiB (1%)
    Title : Thai DTS from Bluray Master
    Language : Thai
    Default : No
    Forced : Yes

    Text 1
    ID : 10
    Format : UTF-8
    Codec ID : S_TEXT/UTF8
    Codec ID/Info : UTF-8 Plain Text
    Duration : 1 h 50 min
    Bit rate : 47 b/s
    Count of elements : 1366
    Stream size : 38.2 KiB (0%)
    Title : English-SRT
    Language : English
    Default : Yes
    Forced : No

    Text 2
    ID : 11
    Format : UTF-8
    Codec ID : S_TEXT/UTF8
    Codec ID/Info : UTF-8 Plain Text
    Duration : 1 h 50 min
    Bit rate : 49 b/s
    Count of elements : 1494
    Stream size : 39.9 KiB (0%)
    Title : English-SDH-SRT
    Language : English
    Default : No
    Forced : No

    Text 3
    ID : 12
    Format : PGS
    Muxing mode : zlib
    Codec ID : S_HDMV/PGS
    Codec ID/Info : Picture based subtitle format used on BDs/HD-DVDs
    Duration : 1 h 50 min
    Bit rate : 34.1 kb/s
    Count of elements : 3001
    Stream size : 27.0 MiB (0%)
    Title : English-PGS
    Language : English
    Default : No
    Forced : No

    Text 12
    ID : 21
    Format : PGS
    Muxing mode : zlib
    Codec ID : S_HDMV/PGS
    Codec ID/Info : Picture based subtitle format used on BDs/HD-DVDs
    Duration : 1 h 58 min
    Bit rate : 26.3 kb/s
    Count of elements : 2229
    Stream size : 22.4 MiB (0%)
    Title : Polish-PGS
    Language : Polish
    Default : No
    Forced : No

    Text 13
    ID : 22
    Format : PGS
    Muxing mode : zlib
    Codec ID : S_HDMV/PGS
    Codec ID/Info : Picture based subtitle format used on BDs/HD-DVDs
    Duration : 1 h 58 min
    Bit rate : 21.6 kb/s
    Count of elements : 2245
    Stream size : 18.4 MiB (0%)
    Title : Chinese-PGS
    Language : Chinese
    Default : No
    Forced : No

    Text 14
    ID : 23
    Format : PGS
    Muxing mode : zlib
    Codec ID : S_HDMV/PGS
    Codec ID/Info : Picture based subtitle format used on BDs/HD-DVDs
    Duration : 1 h 58 min
    Bit rate : 20.0 kb/s
    Count of elements : 2315
    Stream size : 17.0 MiB (0%)
    Title : Korean-PGS
    Language : Korean
    Default : No
    Forced : No

    Text 15
    ID : 24
    Format : PGS
    Muxing mode : zlib
    Codec ID : S_HDMV/PGS
    Codec ID/Info : Picture based subtitle format used on BDs/HD-DVDs
    Duration : 1 h 58 min
    Bit rate : 31.4 kb/s
    Count of elements : 2322
    Stream size : 26.8 MiB (0%)
    Title : Greek-PGS
    Language : Greek
    Default : No
    Forced : No

    Text 16
    ID : 25
    Format : PGS
    Muxing mode : zlib
    Codec ID : S_HDMV/PGS
    Codec ID/Info : Picture based subtitle format used on BDs/HD-DVDs
    Duration : 1 h 58 min
    Bit rate : 25.4 kb/s
    Count of elements : 2285
    Stream size : 21.6 MiB (0%)
    Title : Romanian-PGS
    Language : Romanian
    Default : No
    Forced : No

    Text 17
    ID : 26
    Format : PGS
    Muxing mode : zlib
    Codec ID : S_HDMV/PGS
    Codec ID/Info : Picture based subtitle format used on BDs/HD-DVDs
    Duration : 1 h 58 min
    Bit rate : 1 085 b/s
    Count of elements : 116
    Stream size : 946 KiB (0%)
    Title : Hungarian-FORCED-PGS
    Language : Hungarian
    Default : No
    Forced : No

    Text 18
    ID : 27
    Format : PGS
    Muxing mode : zlib
    Codec ID : S_HDMV/PGS
    Codec ID/Info : Picture based subtitle format used on BDs/HD-DVDs
    Duration : 1 h 58 min
    Bit rate : 1 380 b/s
    Count of elements : 116
    Stream size : 1.17 MiB (0%)
    Title : Russian-FORCED-PGS
    Language : Russian
    Default : No
    Forced : No

    Text 19
    ID : 28
    Format : PGS
    Muxing mode : zlib
    Codec ID : S_HDMV/PGS
    Codec ID/Info : Picture based subtitle format used on BDs/HD-DVDs
    Duration : 1 h 52 min
    Bit rate : 66.6 kb/s
    Count of elements : 3188
    Stream size : 53.7 MiB (0%)
    Title : English-COMMENTARY-PGS
    Language : English
    Default : No
    Forced : No

    Text 20
    ID : 29
    Format : PGS
    Muxing mode : zlib
    Codec ID : S_HDMV/PGS
    Codec ID/Info : Picture based subtitle format used on BDs/HD-DVDs
    Duration : 1 h 51 min
    Bit rate : 64.2 kb/s
    Count of elements : 4041
    Stream size : 51.4 MiB (0%)
    Title : English-COMMENTARY-PGS
    Language : English
    Default : No
    Forced : No

    Text 21
    ID : 31
    Format : VobSub
    Muxing mode : zlib
    Codec ID : S_VOBSUB
    Codec ID/Info : Picture based subtitle format used on DVDs
    Duration : 1 h 51 min
    Bit rate : 5 596 b/s
    Count of elements : 1122
    Stream size : 4.44 MiB (0%)
    Title : Thai 1080p
    Language : Thai
    Default : No
    Forced : No

    Text 22
    ID : 32
    Format : PGS
    Muxing mode : zlib
    Codec ID : S_HDMV/PGS
    Codec ID/Info : Picture based subtitle format used on BDs/HD-DVDs
    Duration : 1 h 51 min
    Bit rate : 22.7 kb/s
    Count of elements : 2244
    Stream size : 18.1 MiB (0%)
    Title : Thai PGS from Bluray Master
    Language : Thai
    Default : No
    Forced : No

    Text 23
    ID : 33
    Format : PGS
    Muxing mode : zlib
    Codec ID : S_HDMV/PGS
    Codec ID/Info : Picture based subtitle format used on BDs/HD-DVDs
    Duration : 1 h 59 min
    Bit rate : 32.2 kb/s
    Count of elements : 2254
    Stream size : 27.5 MiB (0%)
    Title : PGS
    Language : Thai
    Default : No
    Forced : No

    Text 24
    ID : 34
    Format : VobSub
    Muxing mode : zlib
    Codec ID : S_VOBSUB
    Codec ID/Info : Picture based subtitle format used on DVDs
    Duration : 1 h 59 min
    Bit rate : 7 096 b/s
    Count of elements : 1127
    Stream size : 6.07 MiB (0%)
    Title : VOB
    Language : Thai
    Default : No
    Forced : No

    Text 25
    ID : 35
    Format : PGS
    Muxing mode : zlib
    Codec ID : S_HDMV/PGS
    Codec ID/Info : Picture based subtitle format used on BDs/HD-DVDs
    Duration : 1 h 59 min
    Bit rate : 32.2 kb/s
    Count of elements : 2254
    Stream size : 27.5 MiB (0%)
    Title : PGS-YELLOW
    Language : Thai
    Default : No
    Forced : No

    Text 26
    ID : 36
    Format : VobSub
    Muxing mode : zlib
    Codec ID : S_VOBSUB
    Codec ID/Info : Picture based subtitle format used on DVDs
    Duration : 1 h 59 min
    Bit rate : 7 096 b/s
    Count of elements : 1127
    Stream size : 6.07 MiB (0%)
    Title : VOB-YELLOW
    Language : Thai
    Default : No
    Forced : No

    Menu
    00:00:00.000 : en:Chapter 01
    00:06:57.667 : en:Chapter 02
    00:11:47.164 : en:Chapter 03
    00:17:44.813 : en:Chapter 04
    00:26:34.593 : en:Chapter 05
    00:29:55.960 : en:Chapter 06
    00:34:44.290 : en:Chapter 07
    00:38:32.601 : en:Chapter 08
    00:44:26.372 : en:Chapter 09
    00:48:20.105 : en:Chapter 10
    00:55:05.260 : en:Chapter 11
    00:59:13.424 : en:Chapter 12
    01:05:36.432 : en:Chapter 13
    01:12:55.871 : en:Chapter 14
    01:16:08.063 : en:Chapter 15
    01:21:57.871 : en:Chapter 16
    01:26:17.297 : en:Chapter 17
    01:35:32.226 : en:Chapter 18
    01:42:06.453 : en:Chapter 19
    01:51:51.913 : en:Chapter 20


    Download: cornfile
    http://cornfile.com/ugkqbotfkjt5
    Download: mekafile
    http://www.mekafile.com/dl.php?f=gW75d4bU19AR

  2. #2
    Senior Member
    Join Date
    Jun 2012
    Posts
    1,128
    Thanks
    0
    Thanked 1 Time in 1 Post
    ขอบคุณครับ

  3. #3
    Junior Member
    Join Date
    May 2019
    Posts
    5
    Thanks
    0
    Thanked 0 Times in 0 Posts
    โหลดได้แล้วครับ ขอบคุณมากครับ

+ Reply to Thread

Thread Information

Users Browsing this Thread

There are currently 1 users browsing this thread. (0 members and 1 guests)

     

Posting Permissions

  • You may not post new threads
  • You may not post replies
  • You may not post attachments
  • You may not edit your posts