+ Reply to Thread
Results 1 to 7 of 7
  1. #1
    Administrators Duckload.us's Avatar
    Join Date
    Dec 2010
    Posts
    104,472
    Thanks
    9
    Thanked 107,734 Times in 50,799 Posts

    Question (^չ*!*ҡ^)-The Knight of Shadows Between Yin and Yang (2019) ⤵þѤԹҧ-{Super HQ}-[1080p.br.x264][Sound Chi DTS/Thai AC3 5.1:MASTER::Modifide][SUB:Eng/Chi]



    *** The Knight of Shadows Between Yin and Yang (2019) ⤵þѤԹҧ ***

    ˹ѧǡѧ㹼Όҫ
    ԹŧѺ繼ç ʹѡҺͧԹҧѧͧԹ͡ ٵԼջҨءѧš
    ѧҡբ˵ءó ͧ١ҨѺǡ鹨Ѻ
    1080p سҾ٧!
    Chinese Hard Sub :: English Soft Sub
    § From Master.


    The Knight of Shadows: Between Yin and Yang (2019)
    1h 49min | Action, Fantasy, Romance | 5 February 2019 (China)
    Director: Vash (as Jia Yan)
    Writer: Boham Liu
    Stars: Jackie Chan, Elane Zhong, Ethan Juan

    ....ͧ͡ФѹҧҳҨ лҨ ͧѾá¡ѧءҴѧš Ҫѹè֧觹ѡͩѧ ԧ (Թŧ) 㹤Һѡ׺ ¾ǡѹءǡѺ ظШӵǤ ѹɔ ͧҪѹ Ѻҷ ѴѹԦҵÔ ÷§ҧ áԨ鹢 ԧ ͧ͡Ѻѡ׺ ” (Թ ˧) ա˹觹ѡ ” (ǹ ԧ¹) 諧ԧªªԵҧõѺҨ Ш ͡䢤ҹµҧȹ ͹оҹ鹶١ ¹ ( ) ˭ԧ駨͡繼Ѻ ԧ֧ͧӷѡ༪ԭ ҡõӤѭ͹͹ šдԹᴹá !

    Format : Matroska
    Format version : Version 4
    File size : 3.98 GiB
    Duration : 1 h 48 min
    Overall bit rate : 5 232 kb/s
    Movie name : The.Knight.of.Shadows.Between.Yin.and.Yang.2019.10 80p.X264.

    Video
    ID : 1
    Format : AVC
    Format/Info : Advanced Video Codec
    Format profile : [email protected]
    Format settings : CABAC / 3 Ref Frames
    Format settings, CABAC : Yes
    Format settings, ReFrames : 3 frames
    Codec ID : V_MPEG4/ISO/AVC
    Duration : 1 h 48 min
    Bit rate : 2 927 kb/s
    Width : 1 920 pixels
    Height : 800 pixels
    Display aspect ratio : 2.40:1
    Frame rate mode : Constant
    Frame rate : 24.000 FPS
    Color space : YUV
    Chroma subsampling : 4:2:0
    Bit depth : 8 bits
    Scan type : Progressive
    Bits/(Pixel*Frame) : 0.079
    Stream size : 2.23 GiB (56%)
    Title : The.Knight.of.Shadows.Between.Yin.and.Yang.2019.10 80p.X264.{Super HQ}[email protected] CUP
    Writing library : qiyi.com vtc-test
    Language : Chinese
    Default : Yes
    Forced : No
    Color range : Limited
    Color primaries : BT.709
    Transfer characteristics : BT.709
    Matrix coefficients : BT.709

    Audio #1
    ID : 2
    Format : AC-3
    Format/Info : Audio Coding 3
    Commercial name : Dolby Digital
    Codec ID : A_AC3
    Duration : 1 h 48 min
    Bit rate mode : Constant
    Bit rate : 320 kb/s
    Channel(s) : 6 channels
    Channel layout : L R C LFE Ls Rs
    Sampling rate : 44.1 kHz
    Frame rate : 28.711 FPS (1536 SPF)
    Bit depth : 16 bits
    Compression mode : Lossy
    Delay relative to video : -83 ms
    Stream size : 249 MiB (6%)
    Title : 5.1 AC3 Thai 320k 249m
    Language : Thai
    Service kind : Complete Main
    Default : Yes
    Forced : No

    Audio #2
    ID : 3
    Format : DTS
    Format/Info : Digital Theater Systems
    Codec ID : A_DTS
    Duration : 1 h 48 min
    Bit rate mode : Constant
    Bit rate : 1 984 kb/s
    Channel(s) : 6 channels
    Channel layout : C L R Ls Rs LFE
    Sampling rate : 24.0 kHz
    Frame rate : 23.438 FPS (1024 SPF)
    Bit depth : 16 bits
    Compression mode : Lossy
    Delay relative to video : -83 ms
    Stream size : 1.51 GiB (38%)
    Title : 5.1 dts Chi 24000-1.50m
    Language : Chinese
    Default : No
    Forced : No

    Text
    ID : 4
    Format : UTF-8
    Codec ID : S_TEXT/UTF8
    Codec ID/Info : UTF-8 Plain Text
    Duration : 1 h 41 min
    Bit rate : 40 b/s
    Count of elements : 1069
    Stream size : 29.7 KiB (0%)
    Title : SRT
    Language : English
    Default : Yes
    Forced : No





    Download: cornfile
    http://cornfile.com/hpi37kuf6upu
    Download: mekafile
    http://www.mekafile.com/dl.php?f=Ltb2eabU6f7n

  2. The Following 5 Users Say Thank You to Duckload.us For This Useful Post:

    apichartdear (05-18-2019), gaszolineskywalker (06-20-2019), PeBomb (06-07-2019), PUNKROCK (05-27-2019), Wesker_TOT (05-17-2019)

  3. #2
    Senior Member
    Join Date
    Dec 2013
    Posts
    1,671
    Thanks
    3,627
    Thanked 0 Times in 0 Posts
    ͺسѺ...

  4. #3
    Member
    Join Date
    Apr 2016
    Posts
    38
    Thanks
    7
    Thanked 0 Times in 0 Posts
    ѹǤѺ..Ŵ....
    öҶ֧䫵
    cornfile.com ʸ

    ͧ:
    Ǩͺ
    Ǩͺ͡
    ERR_CONNECTION_REFUSED
    ǨͺԹ絢ͧس
    Ǩͺ պٵ ػó͢ سҨСѧ

    ͹حҵ Opera Ҷ֧͢¹㹡õ駤͡û ѹʢͧس
    ҡ¡÷Ѻ͹حҵҶ֧ ͢ ͧ͡ҡ¡Ѻ

    ҡس͡…
    Ǩͺõ駤Ҿ͡͵Դͼк ͢¢ͧسҾ͡ӧҹ ҤسҤسè͡: 价ѡ> õ駤 > ¹õ駤Ҿ͡… > õ駤 LAN ¡ԡ͡ "͡Ѻк LAN ͧس"

  5. #4
    Senior Member
    Join Date
    Jun 2012
    Posts
    1,159
    Thanks
    0
    Thanked 1 Time in 1 Post
    ͺسѺ

  6. #5
    Senior Member
    Join Date
    Jun 2014
    Posts
    684
    Thanks
    0
    Thanked 0 Times in 0 Posts
    ͺسѺ

  7. #6
    Senior Member PUNKROCK's Avatar
    Join Date
    Jul 2011
    Posts
    1,265
    Thanks
    1,150
    Thanked 0 Times in 0 Posts
    . ⪤դآ ФѺ
    PUNKROCK NEVERDIE

  8. #7
    Senior Member
    Join Date
    Oct 2012
    Posts
    625
    Thanks
    1,564
    Thanked 0 Times in 0 Posts
    ͺسѺ

Thread Information

Users Browsing this Thread

There are currently 1 users browsing this thread. (0 members and 1 guests)

     

Posting Permissions

  • You may not post new threads
  • You may not post replies
  • You may not post attachments
  • You may not edit your posts