+ Reply to Thread
Results 1 to 4 of 4
  1. #1
    Administrators Duckload.us's Avatar
    Join Date
    Dec 2010
    Posts
    103,654
    Thanks
    9
    Thanked 106,624 Times in 50,438 Posts

    Question []-[V2] ***John Wick 3: Ԥ çҹá 3*** 1080p-WEB-DL.H.264.1080p-[ҡç]





    John Wick: Chapter 3 - Parabellum



    Rating: 8.5/10 Year: 2019 Genres: Action / Crime / Thriller Runtime: 130 min Language: English Director: Chad Stahelski Writers: Derek Kolstad / Shay Hatten / Chris Collins Cast: Keanu Reeves / Halle Berry / Ian McShanePlot:

    In this third installment of the adrenaline-fueled action franchise, skilled assassin John Wick (Keanu Reeves) returns with a $14 million price tag on his head and an army of bounty-hunting killers on his trail. After killing a member of the shadowy international assassin's guild, the High Table, John Wick is excommunicado, but the world's most ruthless hit men and women await his every turn.

    John Wick 3 Parabellum Ҥ John Wick ͧ١šҴ¤ $14 ҹ­ ͧҡˡҧ ¡æҤ㹾鹷çͧ Continental 觤ҦҤҪԡдѺ٧ Ҩ֧ͧЦҡѺѵͺҹҷҧź˹ ͡ҡͧ


    Format : Matroska
    Format version : Version 4 / Version 2
    File size : 5.67 GiB
    Duration : 2 h 1 min
    Overall bit rate mode : Variable
    Overall bit rate : 6 701 kb/s
    Encoded date : UTC 2019-05-18 18:29:53
    Writing application : mkvmerge v33.1.0 ('Primrose') 64-bit
    Writing library : libebml v1.3.7 + libmatroska v1.5.0

    Video
    ID : 1
    Format : AVC
    Format/Info : Advanced Video Codec
    Format profile : [email protected]
    Format settings : CABAC / 1 Ref Frames
    Format settings, CABAC : Yes
    Format settings, ReFrames : 1 frame
    Format settings, GOP : M=1, N=25
    Codec ID : V_MPEG4/ISO/AVC
    Duration : 2 h 1 min
    Bit rate mode : Variable
    Bit rate : 6 081 kb/s
    Maximum bit rate : 2 000 kb/s
    Width : 1 920 pixels
    Height : 1 080 pixels
    Display aspect ratio : 16:9
    Frame rate mode : Constant
    Frame rate : 30.000 FPS
    Color space : YUV
    Chroma subsampling : 4:2:0
    Bit depth : 8 bits
    Scan type : Progressive
    Bits/(Pixel*Frame) : 0.098
    Stream size : 5.14 GiB (91%)
    Default : Yes
    Forced : No

    Audio #1
    ID : 2
    Format : AAC
    Format/Info : Advanced Audio Codec
    Format profile : LC
    Codec ID : A_AAC-2
    Duration : 2 h 1 min
    Bit rate : 302 kb/s
    Channel(s) : 6 channels
    Channel positions : Front: L C R, Side: L R, LFE
    Sampling rate : 48.0 kHz
    Frame rate : 46.875 FPS (1024 SPF)
    Compression mode : Lossy
    Stream size : 261 MiB (5%)
    Title : § (Thai)
    Language : Thai
    Default : Yes
    Forced : Yes

    Audio #2
    ID : 3
    Format : AAC
    Format/Info : Advanced Audio Codec
    Format profile : LC
    Codec ID : A_AAC-2
    Duration : 2 h 1 min
    Bit rate : 315 kb/s
    Channel(s) : 6 channels
    Channel positions : Front: L C R, Side: L R, LFE
    Sampling rate : 48.0 kHz
    Frame rate : 46.875 FPS (1024 SPF)
    Compression mode : Lossy
    Stream size : 273 MiB (5%)
    Default : No
    Forced : No







    Download: cornfile
    http://cornfile.com/2stvyw52vfid
    Download: mekafile
    http://www.mekafile.com/dl.php?f=n9a666bUc0py

  2. The Following 2 Users Say Thank You to Duckload.us For This Useful Post:

    PUNKROCK (05-30-2019), Wesker_TOT (05-20-2019)

  3. #2
    Senior Member
    Join Date
    Dec 2013
    Posts
    1,631
    Thanks
    3,588
    Thanked 0 Times in 0 Posts
    ͺسѺ...

  4. #3
    Senior Member
    Join Date
    Jun 2014
    Posts
    581
    Thanks
    0
    Thanked 0 Times in 0 Posts
    ͺسѺ

  5. #4
    Senior Member PUNKROCK's Avatar
    Join Date
    Jul 2011
    Posts
    1,266
    Thanks
    1,150
    Thanked 0 Times in 0 Posts
    . ⪤դآ ФѺ
    PUNKROCK NEVERDIE

Thread Information

Users Browsing this Thread

There are currently 1 users browsing this thread. (0 members and 1 guests)

     

Posting Permissions

  • You may not post new threads
  • You may not post replies
  • You may not post attachments
  • You may not edit your posts