+ Reply to Thread
Results 1 to 3 of 3
  1. #1
    Administrators Duckload.us's Avatar
    Join Date
    Dec 2010
    Posts
    104,434
    Thanks
    9
    Thanked 107,705 Times in 50,790 Posts

    Question [ฝรั่ง] Fast and Furious 6 (2013) [MKV HEVC 4K HDR10] [English : HE-AAC 7.1 Ch] [พากย์ไทย : HE-AAC 5.1 Ch] [บรรยาย PGS : English / ไทย]



    Fast and Furious 6 (2013) [MKV HEVC 4K HDR10]
    [English : HE-AAC 7.1 Ch] [พากย์ไทย : HE-AAC 5.1 Ch] [บรรยาย PGS : English / ไทย]

    วิน ดีเซล, พอล วอล์คเกอร์และดเวย์น จอห์นสัน เดอะร็อค นำทีมนักแสดงชั้นนำทวงบัลลังก์เจ้าถนนอีกครั้ง
    เมื่อแฟรนไชส์บล็อกบัสเตอร์ระดับโลกแรงทะลุนรกเรื่อง นี้ได้ซิ่งทะยานสู่ทวีปใหม่ใน Fast & Furious 6 ในภาคนี้ ขวัญใจแฟนๆ
    ที่กลับมารวมตัวกันอีกครั้งเพื่อร่วมผจญภัยที่ท้ามฤต ยูที่สุด ทั้งจอร์แดนา บรูว์สเตอร์, มิเชลล์ โรดริเกซ, ไทริส กิ๊บสัน, ซุง กัง, กัล กาด็อท,
    คริส “ลูดาคริส” บริดเจสและเอลซา พาทากี้ จะได้ร่วมแสดงกับนักแสดงหน้าใหม่ตัวจี๊ดของแฟรนไชส์อ ย่างลุค อีวานส์และจีนา คาราโน
    นับตั้งแต่การปล้นที่ริโอของดอม (ดีเซล) และไบรอัน (วอล์คเกอร์) ได้ทลายอาณาจักรของราชายาเสพติดและพวกเขาก็จากมาพร้อ มกับเงิน 100 ล้านเหรียญ
    ตัวเอกของเราต่างก็กระจัดกระจายกันไปทั่วโลก แต่การที่พวกเขาไม่สามารถกลับบ้านเกิดและต้องใช้ชีวิ ตอย่างหลบๆ ซ่อนๆ
    ทำให้ชีวิตของพวกเขาเหมือนขาดอะไรบางอย่าง
    ในขณะเดียวกัน ฮ็อบส์ (จอห์นสัน) ก็กำลังสืบร่องรอยขององค์กรนักซิ่งรับจ้างฝีมือพระกา ฬที่ฝากผลงานอาชญากรรมไว้ใน 12 ประเทศ
    โดยผู้อยู่เบื้องหลังองค์กรนี้ (อีวานส์) ได้รับความช่วยเหลือจากมือขวาไร้ปรานี ที่ถูกเปิดเผยว่าคือ เล็ตตี้ (โรดริเกซ) หญิงคนรักที่ดอมคิดว่าเสียชีวิตไปแล้ว
    หนทางเดียวที่จะหยุดยั้งพวกเขาได้คือการเอาชนะพวกเขา ในการซิ่ง ฮ็อบส์จึงขอให้ดอมรวมทีมนักซิ่งของเขาในลอนดอน
    โดยค่าตอบแทนเป็นการอภัยโทษให้กับพวกเขาทั้งหมดเพื่อ ที่พวกเขาจะสามารถกลับบ้านและไปใช้ชีวิตครอบครัวที่ส มบูรณ์ได้เหมือนเดิม
    ในการต่อยอดจากความสำเร็จระดับโลกของ Fast Five และผลักดันฉากแอ็กชัน ฉากผาดโผนและการเล่าเรื่องให้ยิ่งใหญ่ขึ้น Fast & Furious 6
    จะเป็นโอกาสให้ผู้กำกับจัสติน ลินกลับมานั่งแท่นผู้กำกับอีกครั้งเป็นครั้งที่สี่ และเขาก็ได้รับการสนับสนุน
    โดยผู้อำนวยการสร้างผู้คร่ำหวอดในวงการ นีล เอช. มอริทซ์และวิน ดีเซล
    ผู้อ้าแขนต้อนรับผู้อำนวยการสร้างเคลย์ตัน ทาวน์เซนด์ กลับสู่แฟรนไชส์นี้อีกครั้งหนึ่ง!!!

    Code:
    General
    Complete name                  : Fast and Furious 6 (2013) 4K [EN HE-AAC 7.1 TH HE-AAC 5.1].mkv
    Format                         : Matroska
    Format version                 : Version 4
    File size                      : 9.05 GiB
    Duration                       : 2 h 10 min
    Overall bit rate               : 9 954 kb/s
    Movie name                     : Fast and Furious 6 (2013) 4K [EN HE-AAC 7.1 TH HE-AAC 5.1]
    Encoded date                   : UTC 2019-05-18 07:01:57
    Writing application            : mkvmerge v33.1.0 ('Primrose') 64-bit
    Writing library                : libebml v1.3.7 + libmatroska v1.5.0
    
    Video
    ID                             : 1
    Format                         : HEVC
    Format/Info                    : High Efficiency Video Coding
    Commercial name                : HDR10
    Format profile                 : Main [email protected]@High
    Codec ID                       : V_MPEGH/ISO/HEVC
    Duration                       : 2 h 10 min
    Bit rate                       : 9 552 kb/s
    Width                          : 3 840 pixels
    Height                         : 2 160 pixels
    Display aspect ratio           : 16:9
    Frame rate mode                : Constant
    Frame rate                     : 23.976 (24000/1001) FPS
    Color space                    : YUV
    Chroma subsampling             : 4:2:0 (Type 2)
    Bit depth                      : 10 bits
    Bits/(Pixel*Frame)             : 0.048
    Stream size                    : 8.68 GiB (96%)
    Default                        : Yes
    Forced                         : No
    Color range                    : Limited
    Color primaries                : BT.2020
    Transfer characteristics       : PQ
    Matrix coefficients            : BT.2020 non-constant
    Mastering display color primar : Display P3
    Mastering display luminance    : min: 0.0050 cd/m2, max: 1000 cd/m2
    Maximum Content Light Level    : 1000 cd/m2
    Maximum Frame-Average Light Le : 252 cd/m2
    
    Audio #1
    ID                             : 2
    Format                         : AAC LC SBR
    Format/Info                    : Advanced Audio Codec Low Complexity with Spectral Band Replication
    Commercial name                : HE-AAC
    Format settings                : Explicit
    Codec ID                       : A_AAC-2
    Duration                       : 2 h 10 min
    Bit rate                       : 225 kb/s
    Channel(s)                     : 8 channels
    Channel layout                 : C L R Ls Rs Lb Rb LFE
    Sampling rate                  : 48.0 kHz
    Frame rate                     : 23.438 FPS (2048 SPF)
    Compression mode               : Lossy
    Delay relative to video        : 37 ms
    Stream size                    : 209 MiB (2%)
    Language                       : English
    Default                        : Yes
    Forced                         : No
    
    Audio #2
    ID                             : 3
    Format                         : AAC LC SBR
    Format/Info                    : Advanced Audio Codec Low Complexity with Spectral Band Replication
    Commercial name                : HE-AAC
    Format settings                : Explicit
    Codec ID                       : A_AAC-2
    Duration                       : 2 h 10 min
    Bit rate                       : 154 kb/s
    Channel(s)                     : 6 channels
    Channel layout                 : C L R Ls Rs LFE
    Sampling rate                  : 48.0 kHz
    Frame rate                     : 23.438 FPS (2048 SPF)
    Compression mode               : Lossy
    Delay relative to video        : 36 ms
    Stream size                    : 143 MiB (2%)
    Language                       : Thai
    Default                        : No
    Forced                         : No
    
    Text #1
    ID                             : 4
    Format                         : PGS
    Muxing mode                    : zlib
    Codec ID                       : S_HDMV/PGS
    Codec ID/Info                  : Picture based subtitle format used on BDs/HD-DVDs
    Duration                       : 2 h 2 min
    Bit rate                       : 31.0 kb/s
    Count of elements              : 2924
    Stream size                    : 27.2 MiB (0%)
    Language                       : English
    Default                        : No
    Forced                         : No
    
    Text #2
    ID                             : 5
    Format                         : PGS
    Muxing mode                    : zlib
    Codec ID                       : S_HDMV/PGS
    Codec ID/Info                  : Picture based subtitle format used on BDs/HD-DVDs
    Duration                       : 2 h 1 min
    Bit rate                       : 25.7 kb/s
    Count of elements              : 2498
    Stream size                    : 22.4 MiB (0%)
    Language                       : Thai
    Default                        : Yes
    Forced                         : No
    
    Menu
    00:00:00.000                   : en:(01)00:00:00:000
    00:04:21.010                   : en:(02)00:04:21:010
    00:10:19.118                   : en:(03)00:10:19:118
    00:15:35.267                   : en:(04)00:15:35:267
    00:19:18.574                   : en:(05)00:19:18:574
    00:24:32.721                   : en:(06)00:24:32:721
    00:30:23.404                   : en:(07)00:30:23:404
    00:36:28.477                   : en:(08)00:36:28:477
    00:43:43.954                   : en:(09)00:43:43:954
    00:50:21.810                   : en:(10)00:50:21:810
    00:56:24.964                   : en:(11)00:56:24:964
    01:04:07.843                   : en:(12)01:04:07:843
    01:09:28.080                   : en:(13)01:09:28:080
    01:18:27.244                   : en:(14)01:18:27:244
    01:24:54.964                   : en:(15)01:24:54:964
    01:34:07.475                   : en:(16)01:34:07:475
    01:41:02.347                   : en:(17)01:41:02:347
    01:47:42.706                   : en:(18)01:47:42:706
    01:56:52.880                   : en:(19)01:56:52:880
    02:02:08.487                   : en:(20)02:02:08:487
    02:10:06.465                   : en:(21)02:10:06:465





    Download: cornfile
    http://cornfile.com/la9q3ojn962x
    Download: mekafile
    http://www.mekafile.com/dl.php?f=T76c58bUeLyS

  2. The Following 2 Users Say Thank You to Duckload.us For This Useful Post:

    agg001 (06-23-2019), Wesker_TOT (05-28-2019)

  3. #2
    Senior Member
    Join Date
    Jun 2012
    Posts
    1,159
    Thanks
    0
    Thanked 1 Time in 1 Post
    ขอบคุณครับ

  4. #3
    Senior Member
    Join Date
    Dec 2013
    Posts
    1,670
    Thanks
    3,626
    Thanked 0 Times in 0 Posts
    ขอบคุณครับ...

+ Reply to Thread

Thread Information

Users Browsing this Thread

There are currently 1 users browsing this thread. (0 members and 1 guests)

     

Posting Permissions

  • You may not post new threads
  • You may not post replies
  • You may not post attachments
  • You may not edit your posts