+ Reply to Thread
Results 1 to 1 of 1
  1. #1
    Administrators Duckload.us's Avatar
    Join Date
    Dec 2010
    Posts
    107,035
    Thanks
    9
    Thanked 111,510 Times in 51,839 Posts

    Question [จีน]+[ญี่ปุ่น] Miracles of the Namiya General Store ปาฏิหารย์ร้านขายของชำย้อนเวลาของคุณนามิยะ-Encode.H.264.720p. [Rip]-[Soundtrack บรรยายไทย (แปล)]



    [ซับไทย] Miracles of the Namiya General Store #หวังจวิ้นข่าย #ตีรี่เร่อปา เฉินหลง
    เวอร์ชั่นจีนดูเข้าใจกว่าเวอร์ชั่นญี่ปุ่น

    ขอบคุณซับไทยจาก @Pengyuexing

    สร้างจากนิยายของ Keigo Higashino
    หนังดีที่ควรดู ควรแชร์ต่อให้เพื่อนๆ ดู


    เรื่องย่อ

    ในความเงียบสงัดยามวิกาล หัวขโมยสามคนก่อเหตุและเข้าไปซ่อนตัวในร้านชำร้าง ทันใดนั้นก็มีจดหมายลึกลับสอดเข้ามาทางช่องประตู ใครบางคนเขียนเล่าปัญหาชีวิตและขอคำแนะนำจากเจ้าของร ้านชำ หัวขโมยทั้งสามจึงนึกสนุกและสวมรอยเขียนตอบเอง แต่จู่ ๆ จดหมายที่เขียนก็หายวับไป...แทนที่ด้วยจดหมายฉบับใหม ่ ปรากฏว่าจดหมายที่ว่านั้นถูกส่งมาจากอดีตเมื่อ 40 ปีก่อน! พวกเขาสงสัยว่าร้านชำแห่งนี้น่าจะมีกลไกบางอย่าง ทำให้ติดต่อกับคนในอีกยุคสมัยได้ และคนที่น่าจะรู้ความลับนี้ก็คือ คุณนามิยะ เจ้าของร้าน แต่ปัญหาคือเขาจากโลกนี้ไปหลายสิบปีแล้ว! เมื่อมิติแห่งกาลเวลามาบรรจบ...ร้านชำที่เคยช่วยเหลื อผู้คนมากมายผ่านจดหมาย จะทำให้ปาฏิหาริย์เกิดขึ้นอีกครั้งได้หรือไม่?

    Format : MPEG-4
    Format profile : Base Media / Version 2
    Codec ID : mp42 (isom/mp42)
    File size : 1.04 GiB
    Duration : 1 h 46 min
    Overall bit rate mode : Variable
    Overall bit rate : 1 395 kb/s
    Encoded date : UTC 2018-03-23 11:03:46
    Tagged date : UTC 2018-03-23 11:03:46
    gsst : 0
    gstd : 6394426

    Video
    ID : 1
    Format : AVC
    Format/Info : Advanced Video Codec
    Format profile : [email protected]
    Format settings : CABAC / 1 Ref Frames
    Format settings, CABAC : Yes
    Format settings, ReFrames : 1 frame
    Format settings, GOP : M=1, N=60
    Codec ID : avc1
    Codec ID/Info : Advanced Video Coding
    Duration : 1 h 46 min
    Bit rate : 1 201 kb/s
    Maximum bit rate : 7 846 kb/s
    Width : 1 280 pixels
    Height : 534 pixels
    Display aspect ratio : 2.40:1
    Frame rate mode : Constant
    Frame rate : 23.511 FPS
    Color space : YUV
    Chroma subsampling : 4:2:0
    Bit depth : 8 bits
    Scan type : Progressive
    Bits/(Pixel*Frame) : 0.075
    Stream size : 916 MiB (86%)
    Tagged date : UTC 2018-03-23 11:05:58
    Color range : Limited
    Color primaries : BT.709
    Transfer characteristics : BT.709
    Matrix coefficients : BT.709

    Audio
    ID : 2
    Format : AAC
    Format/Info : Advanced Audio Codec
    Format profile : LC
    Codec ID : mp4a-40-2
    Duration : 1 h 46 min
    Bit rate mode : Variable
    Bit rate : 192 kb/s
    Maximum bit rate : 201 kb/s
    Channel(s) : 2 channels
    Channel positions : Front: L R
    Sampling rate : 44.1 kHz
    Frame rate : 43.066 FPS (1024 SPF)
    Compression mode : Lossy
    Stream size : 146 MiB (14%)
    Title : IsoMedia File Produced by Google, 5-11-2011
    Encoded date : UTC 2018-03-23 11:05:06
    Tagged date : UTC 2018-03-23 11:05:58







    ******************************************




    Namiya Zakkaten no kiseki



    Rating: 6.8/10 Year: 2017 Genres: Drama Runtime: 129 min Language: Japanese Director: Ryuichi Hiroki Writers: Keigo Higashino / Hiroshi Saitรด Cast: Masato Hagiwara / Kento Hayashi / Mugi Kadowakiโ€ฆ Plot:

    Three derelicts are stuck inside an old store and cannot leave. They regroup to consider their options overnight. Then the mail arrives unexpectedly. It turns out that the building's owner doled out advice to anyone who wrote him and placed the replies for the seekers to collect. The three notice that this story is decades old. Written by aghaemi



    [Thaisub]Namiya zakkaten no kiseki
    ~ปาฎิหาริย์ร้านขายของชำนามิยะ~

    สร้างจากนิยายของ Keigo Higashino
    หนังดีที่ควรดู ควรแชร์ต่อให้เพื่อนๆ ดู

    นำแสดงโดย ยามาดะ เรียวสุเกะ


    【 เรื่องย่อ】
    เรื่องเกิดขึ้นเมื่อปี 2012 กลุ่มเด็กหลงผิด 3 คนเข้าไปขโมยของในบ้านคนรวยบ้านหนึ่ง คืนนั้นพวกเขาเข้าไปหลบในร้านขายของชำร้าง ชื่อ “นามิยะ” ที่อดีตนอกจากจะเป็นร้านขายของแล้ว ยังให้ชาวบ้านส่งจดหมายเข้ามาปรึกษาปัญหาชีวิตได้ด้ว ย

    ขณะที่ทั้ง 3 ซ่อนตัวอยู่ จู่ๆก็มีจดหมายถูกส่งมาผ่านชัตเตอร์หน้าร้าน เป็นจดหมายจากคนในอดีตเมื่อ32 ปีก่อน ทั้ง3ตัดสินใจ เป็นที่ปรึกษาให้จดหมายเหล่านั้น การตอบจดหมายกลับไป ทำให้ความคิดบางอย่างของพวกเขาเปลี่ยนไปชั่วข้ามคืน.






    ข้อมูลเพิ่มเติม
    - ยอดขายกว่า 12 ล้านเล่ม สร้างเป็นภาพยนตร์ทั้งในญี่ปุ่นและจีน
    - หนังสือขายดีอันดับหนึ่งของบูธวีเลิร์นในงานสัปดาห์ห นังสือครั้งที่ผ่านมา
    - มีกระแสจาก #มินฮยอนอ่าน ทำให้เพิ่มยอดขายแบบถล่มทลาย และดึงดูดลูกค้าขาจรที่ไม่ใช่แฟนปกติของสำนักพิมพ์
    - สร้างเป็นภาพยนตร์ฟอร์มยักษ์ทั้งในญี่ปุ่นและจีน เวอร์ชั่นจีนนำแสดงโดยเฉินหลง
    - เขียนโดยนักเขียนอันดับหนึ่งของญี่ปุ่น ฮิงานชิโนะ เคโงะ ที่มีนักอ่านชาวไทยติดตามผลงานอย่างมากมาย

    Format : MPEG-4
    Format profile : Base Media
    Codec ID : isom (isom/avc1/iso6)
    File size : 1.08 GiB
    Duration : 2 h 9 min
    Overall bit rate mode : Variable
    Overall bit rate : 1 194 kb/s
    Encoded date : UTC 2018-05-19 03:47:26
    Tagged date : UTC 2018-05-19 03:47:26

    Video
    ID : 1
    Format : AVC
    Format/Info : Advanced Video Codec
    Format profile : [email protected]
    Format settings : CABAC / 4 Ref Frames
    Format settings, CABAC : Yes
    Format settings, ReFrames : 4 frames
    Codec ID : avc1
    Codec ID/Info : Advanced Video Coding
    Duration : 2 h 9 min
    Bit rate : 1 111 kb/s
    Maximum bit rate : 5 606 kb/s
    Width : 1 280 pixels
    Height : 544 pixels
    Display aspect ratio : 2.35:1
    Frame rate mode : Constant
    Frame rate : 23.976 (24000/1001) FPS
    Color space : YUV
    Chroma subsampling : 4:2:0
    Bit depth : 8 bits
    Scan type : Progressive
    Bits/(Pixel*Frame) : 0.067
    Stream size : 1.01 GiB (93%)
    Title : Video
    Writing library : x264 core 146 r2538 121396c
    Encoding settings : cabac=1 / ref=2 / deblock=1:0:0 / analyse=0x3:0x113 / me=hex / subme=6 / psy=1 / psy_rd=1.00:0.00 / mixed_ref=1 / me_range=16 / chroma_me=1 / trellis=1 / 8x8dct=1 / cqm=0 / deadzone=21,11 / fast_pskip=1 / chroma_qp_offset=-2 / threads=6 / lookahead_threads=1 / sliced_threads=0 / nr=0 / decimate=1 / interlaced=0 / bluray_compat=0 / constrained_intra=0 / bframes=3 / b_pyramid=2 / b_adapt=1 / b_bias=0 / direct=1 / weightb=1 / open_gop=0 / weightp=1 / keyint=250 / keyint_min=23 / scenecut=40 / intra_refresh=0 / rc_lookahead=30 / rc=crf / mbtree=1 / crf=21.0 / qcomp=0.60 / qpmin=0 / qpmax=69 / qpstep=4 / ip_ratio=1.40 / aq=1:1.00
    Encoded date : UTC 2018-05-19 03:47:26
    Tagged date : UTC 2018-05-19 03:47:43

    Audio
    ID : 2
    Format : AAC
    Format/Info : Advanced Audio Codec
    Format profile : LC
    Codec ID : mp4a-40-2
    Duration : 2 h 9 min
    Bit rate mode : Variable
    Bit rate : 79.3 kb/s
    Maximum bit rate : 130 kb/s
    Channel(s) : 2 channels
    Channel positions : Front: L R
    Sampling rate : 48.0 kHz
    Frame rate : 46.875 FPS (1024 SPF)
    Compression mode : Lossy
    Stream size : 73.5 MiB (7%)
    Title :
    Language : Japanese
    Encoded date : UTC 2018-05-19 02:19:02
    Tagged date : UTC 2018-05-19 03:47:43






    VER. [จีน]
    http://cornfile.com/rjmm9r78lhx9
    http://www.mekafile.com/dl.php?f=yBefe8bUeNSW
    VER. [ญี่ปุ่น]
    http://cornfile.com/71n6hzslik73
    http://www.mekafile.com/dl.php?f=nwd51fbUeNZI

  2. The Following User Says Thank You to Duckload.us For This Useful Post:

    roc_dave (05-20-2019)

+ Reply to Thread

Thread Information

Users Browsing this Thread

There are currently 1 users browsing this thread. (0 members and 1 guests)

     

Posting Permissions

  • You may not post new threads
  • You may not post replies
  • You may not post attachments
  • You may not edit your posts