+ Reply to Thread
Results 1 to 2 of 2
  1. #1
    Administrators Duckload.us's Avatar
    Join Date
    Dec 2010
    Posts
    103,654
    Thanks
    9
    Thanked 106,631 Times in 50,445 Posts

    Question [ฝรั่ง]-[**ใหม่ 4K Ultra HD 2160P**] • Backdraft (1991) : เปลวไฟกับวีรบุรุษ [2160p.BluRay.REMUX.HEVC.DTS-X.7.1] • [เสียงอังกฤษ DTS-X 7.1] • [บรรยายไทย + อังกฤษ + ซับไทย PGS คมชัด]




    ในสมัยเด็กๆ ไบรอัน แม็คแคฟฟรีย์ (วิลเลียม บอลวินด์) ได้เห็นพ่อของเขาผู้ซึ่งเป็นตำรวจดับเพลิงตายต่อหน้า ต่อตา จนกระทั่งหลายปีต่อมาเขาก็ได้เข้ารับราชการเป็นตำรวจ ดับเพลิงตามรอยพี่ชายของเขา, สตีเว่นส์ (เคิร์ต รัสเซลล์) ในหน่วยดับเพลิงเดียวกันและไบรอันก็เป็นรุ่นน้องที่ส ุดของหน่วยนี้ ถึงแม้ว่าพี่กับน้องคู่นี้แทบจะมองหน้ากันไม่ติดเลยต ลอดช่วงของการออกปฏิบัติหน้าที่ด้วยกันก็ตาม แต่ต่อมาก็พบว่ามีคดีการลอบวางเพลิงโดยคนร้ายนิรนามผ ู้หนึ่งซึ่งก่อคดีมาหลายครั้ง และแต่ละครั้งก็จะวางเพลิงให้สังหารเหยื่อผู้เคราะห์ ร้ายที่ต้องการให้ตายอย่างแนบเนียน ซึ่งไบรอันก็รู้สึกว่าคดีนี้น่ากลัวมาก จึงขอเข้าร่วมกับเจ้าหน้าที่ตำรวจฝ่ายสืบสวนการลอบวา งเพลิงเพื่อสืบหาตัวผู้กระทำผิดที่ก่อคดีอุกอาจเช่นน ี้ เพื่อป้องกันไม่ให้มันก่อความเสียหายให้แก่ใครได้อีก ...!!!


    Format : Matroska
    Format version : Version 4
    File size : 51.6 GiB
    Duration : 2 h 17 min
    Overall bit rate mode : Variable
    Overall bit rate : 53.8 Mb/s
    Movie name : Backdraft.1991.2160p.BluRay.REMUX.HEVC.DTS-X.7.1

    Video
    ID : 1
    Format : HEVC
    Format/Info : High Efficiency Video Coding
    Commercial name : HDR10
    Format profile : Main [email protected]@High
    Codec ID : V_MPEGH/ISO/HEVC
    Duration : 2 h 17 min
    Bit rate : 50.4 Mb/s
    Width : 3 840 pixels
    Height : 2 160 pixels
    Display aspect ratio : 16:9
    Frame rate mode : Constant
    Frame rate : 23.976 (24000/1001) FPS
    Color space : YUV
    Chroma subsampling : 4:2:0 (Type 2)
    Bit depth : 10 bits
    Bits/(Pixel*Frame) : 0.254
    Stream size : 48.3 GiB (94%)
    Title : [email protected]
    Writing library : ATEME Titan File 3.9.0 (4.9.0.0)
    Default : Yes
    Forced : No
    Color range : Limited
    Color primaries : BT.2020
    Transfer characteristics : PQ
    Matrix coefficients : BT.2020 non-constant
    Mastering display color primaries : Display P3
    Mastering display luminance : min: 0.0050 cd/m2, max: 1000 cd/m2
    Maximum Content Light Level : 1000 cd/m2
    Maximum Frame-Average Light Level : 317 cd/m2

    Audio
    ID : 2
    Format : DTS XLL X
    Format/Info : Digital Theater Systems
    Commercial name : DTS-HD Master Audio
    Codec ID : A_DTS
    Duration : 2 h 17 min
    Bit rate mode : Variable
    Bit rate : 3 292 kb/s
    Channel(s) : 8 channels
    Channel(s)_Original : Object Based
    Channel layout : Object Based
    Sampling rate : 48.0 kHz
    Frame rate : 93.750 FPS (512 SPF)
    Stream size : 3.15 GiB (6%)
    Title : English DTS-X 7.1
    Default : Yes
    Forced : No

    Text #1
    ID : 3
    Format : UTF-8
    Codec ID : S_TEXT/UTF8
    Codec ID/Info : UTF-8 Plain Text
    Duration : 2 h 10 min
    Bit rate : 125 b/s
    Count of elements : 1397
    Stream size : 119 KiB (0%)
    Title : Thai
    Language : Thai
    Default : No
    Forced : No

    Text #2
    ID : 4
    Format : VobSub
    Muxing mode : zlib
    Codec ID : S_VOBSUB
    Codec ID/Info : Picture based subtitle format used on DVDs
    Duration : 2 h 10 min
    Bit rate : 2 089 b/s
    Count of elements : 1397
    Stream size : 1.95 MiB (0%)
    Title : Thai 480P
    Language : Thai
    Default : No
    Forced : No

    Text #3
    ID : 5
    Format : VobSub
    Muxing mode : zlib
    Codec ID : S_VOBSUB
    Codec ID/Info : Picture based subtitle format used on DVDs
    Duration : 2 h 10 min
    Bit rate : 3 728 b/s
    Count of elements : 1397
    Stream size : 3.47 MiB (0%)
    Title : Thai 720P
    Language : Thai
    Default : No
    Forced : No

    Text #4
    ID : 6
    Format : VobSub
    Muxing mode : zlib
    Codec ID : S_VOBSUB
    Codec ID/Info : Picture based subtitle format used on DVDs
    Duration : 2 h 10 min
    Bit rate : 6 052 b/s
    Count of elements : 1397
    Stream size : 5.64 MiB (0%)
    Title : Thai 1080P
    Language : Thai
    Default : No
    Forced : No

    Text #5
    ID : 7
    Format : VobSub
    Muxing mode : zlib
    Codec ID : S_VOBSUB
    Codec ID/Info : Picture based subtitle format used on DVDs
    Duration : 2 h 10 min
    Bit rate : 6 052 b/s
    Count of elements : 1397
    Stream size : 5.64 MiB (0%)
    Title : Thai 1080P [OUT]
    Language : Thai
    Default : No
    Forced : No

    Text #6
    ID : 8
    Format : VobSub
    Muxing mode : zlib
    Codec ID : S_VOBSUB
    Codec ID/Info : Picture based subtitle format used on DVDs
    Duration : 2 h 10 min
    Bit rate : 6 552 b/s
    Count of elements : 1397
    Stream size : 6.10 MiB (0%)
    Title : Thai 1080P BIG
    Language : Thai
    Default : No
    Forced : No

    Text #7
    ID : 9
    Format : VobSub
    Muxing mode : zlib
    Codec ID : S_VOBSUB
    Codec ID/Info : Picture based subtitle format used on DVDs
    Duration : 2 h 10 min
    Bit rate : 6 551 b/s
    Count of elements : 1397
    Stream size : 6.10 MiB (0%)
    Title : Thai 1080P BIG [OUT]
    Language : Thai
    Default : No
    Forced : No

    Text #8
    ID : 10
    Format : VobSub
    Muxing mode : zlib
    Codec ID : S_VOBSUB
    Codec ID/Info : Picture based subtitle format used on DVDs
    Duration : 2 h 10 min
    Bit rate : 6 064 b/s
    Count of elements : 1397
    Stream size : 5.65 MiB (0%)
    Title : Thai 1080P Yellow
    Language : Thai
    Default : No
    Forced : No

    Text #9
    ID : 11
    Format : PGS
    Muxing mode : zlib
    Codec ID : S_HDMV/PGS
    Codec ID/Info : Picture based subtitle format used on BDs/HD-DVDs
    Duration : 2 h 10 min
    Bit rate : 20.5 kb/s
    Count of elements : 2794
    Stream size : 19.1 MiB (0%)
    Title : Thai PGS
    Language : Thai
    Default : No
    Forced : No

    Text #10
    ID : 12
    Format : PGS
    Muxing mode : zlib
    Codec ID : S_HDMV/PGS
    Codec ID/Info : Picture based subtitle format used on BDs/HD-DVDs
    Duration : 2 h 10 min
    Bit rate : 20.5 kb/s
    Count of elements : 2794
    Stream size : 19.1 MiB (0%)
    Title : Thai PGS [OUT]
    Language : Thai
    Default : No
    Forced : No

    Text #11
    ID : 13
    Format : PGS
    Muxing mode : zlib
    Codec ID : S_HDMV/PGS
    Codec ID/Info : Picture based subtitle format used on BDs/HD-DVDs
    Duration : 2 h 10 min
    Bit rate : 22.2 kb/s
    Count of elements : 2794
    Stream size : 20.6 MiB (0%)
    Title : Thai PGS BIG
    Language : Thai
    Default : No
    Forced : No

    Text #12
    ID : 14
    Format : PGS
    Muxing mode : zlib
    Codec ID : S_HDMV/PGS
    Codec ID/Info : Picture based subtitle format used on BDs/HD-DVDs
    Duration : 2 h 10 min
    Bit rate : 20.6 kb/s
    Count of elements : 2794
    Stream size : 19.2 MiB (0%)
    Title : Thai PGS Yellow
    Language : Thai
    Default : No
    Forced : No

    Text #13
    ID : 15
    Format : PGS
    Muxing mode : zlib
    Codec ID : S_HDMV/PGS
    Codec ID/Info : Picture based subtitle format used on BDs/HD-DVDs
    Duration : 2 h 9 min
    Bit rate : 9 953 b/s
    Count of elements : 3186
    Stream size : 9.24 MiB (0%)
    Title : English PGS
    Default : Yes
    Forced : No

























    Download: cornfile
    http://cornfile.com/pt7g0k3uvios
    Download: mekafile
    http://www.mekafile.com/dl.php?f=OR0810bUh4oT

  2. #2
    Senior Member
    Join Date
    Jun 2012
    Posts
    1,145
    Thanks
    0
    Thanked 1 Time in 1 Post
    ขอบคุณครับ

+ Reply to Thread

Thread Information

Users Browsing this Thread

There are currently 1 users browsing this thread. (0 members and 1 guests)

     

Posting Permissions

  • You may not post new threads
  • You may not post replies
  • You may not post attachments
  • You may not edit your posts