+ Reply to Thread
Results 1 to 2 of 2
  1. #1
    Administrators Duckload.us's Avatar
    Join Date
    Dec 2010
    Posts
    103,654
    Thanks
    9
    Thanked 106,624 Times in 50,438 Posts

    Question (^ฝรั่ง*ใหม่!*พากย์ไทยมาสเตอร์^)-Second Act (2018) สาวแซ่บโปรไฟล์แสบ-{Super HQ}-[1080p.br.x264]•[Sound Eng DTS 5.1/Thai AC3 5.1:MASTER::Modifide]•[SUB:Eng]



    *** Second Act (2018) สาวแซ่บโปรไฟล์แสบ ***

    ภาพยนตร์ตลกโรแมนติกอเมริกันปี 2018
    ในโลกที่ปริญญามีค่ามากกว่าประสบการณ์-Second Act ค่อนข้างเป็นหนังดราม่าที่พูดถึงผู้หญิงชนชั้นกลาง (ค่อนล่าง) ที่สู้ชีวิต
    เป็นหนังที่แสดงให้เห็นถึงความสามารถ ความทะเยอทะยาน และการต่อสู้กับระบบความคิดที่ว่าการมีใบปริญญานั้นไ ม่ได้การันตีความสำเร็จในชีวิตได้อย่างน่าสนใจ

    ••• ไฟล์เล็ก 1080p คุณภาพสูง! •••
    เสียงไทย From Master.


    Second Act (2018)
    13 | 1h 43min | Comedy, Drama, Romance | 21 December 2018 (USA)
    Director: Peter Segal
    Writers: Justin Zackham, Elaine Goldsmith-Thomas
    Stars: Jennifer Lopez, Vanessa Hudgens, Leah Remini

    มายา (เจนนิเฟอร์ โลเปซ) เป็นผู้หญิงที่เก่ง ฉลาด และมีประสบการณ์ในงานมายาวนาน แต่การที่เธอขาดการศึกษาในสถาบันที่สูงทำให้เธอต้องถ ูกปฏิเสธจากบริษัทยักษ์ใหญ่มาหลายครั้ง แต่ครั้งนี้จะเปลี่ยนไป เมื่อเพื่อนๆ ของเธอจัดการสร้างเรซูเม่ใหม่ของเธอขึ้นมาให้จี๊ดจ๊า ดยิ่งกว่าเดิม แม้เธอจะเข้ามาทำงานด้วยคำโกหกแต่เธอกำลังจะพิสูจน์ต ัวเองให้ทุกคนรู้ว่าเธอเองก็มีดีไม่แพ้ใคร

    Code:
    Format                      : Matroska
    Format version              : Version 4
    File size                   : 4.20 GiB
    Duration                    : 1 h 44 min
    Overall bit rate            : 5 783 kb/s
    Movie name                  : Second.Act.2018.1080p.blu.ray
    Video
    ID                          : 1
    Format                      : AVC
    Format/Info                 : Advanced Video Codec
    Format profile              : [email protected]
    Format settings             : CABAC / 4 Ref Frames
    Format settings, CABAC      : Yes
    Format settings, ReFrames   : 4 frames
    Codec ID                    : V_MPEG4/ISO/AVC
    Duration                    : 1 h 44 min
    Bit rate                    : 2 500 kb/s
    Width                       : 1 920 pixels
    Height                      : 808 pixels
    Display aspect ratio        : 2.40:1
    Frame rate mode             : Constant
    Frame rate                  : 23.976 (23976/1000) FPS
    Color space                 : YUV
    Chroma subsampling          : 4:2:0
    Bit depth                   : 8 bits
    Scan type                   : Progressive
    Bits/(Pixel*Frame)          : 0.067
    Stream size                 : 1.81 GiB (43%)
    Title                       : Second.Act.2018.1080p.blu.ray-{Super HQ}
    Writing library             : x264 core 152 r2851M ba24899
    Language                    : English
    Default                     : Yes
    Forced                      : No
    
    Audio #1
    ID                          : 2
    Format                      : AC-3
    Format/Info                 : Audio Coding 3
    Commercial name             : Dolby Digital
    Codec ID                    : A_AC3
    Duration                    : 1 h 44 min
    Bit rate mode               : Constant
    Bit rate                    : 640 kb/s
    Channel(s)                  : 6 channels
    Channel layout              : L R C LFE Ls Rs
    Sampling rate               : 44.1 kHz
    Frame rate                  : 28.711 FPS (1536 SPF)
    Bit depth                   : 16 bits
    Compression mode            : Lossy
    Delay relative to video     : -43 ms
    Stream size                 : 476 MiB (11%)
    Title                       : 5.1 AC3-Thai 640k 476m
    Language                    : Thai
    Service kind                : Complete Main
    Default                     : Yes
    Forced                      : No
    
    Audio #2
    ID                          : 3
    Format                      : DTS
    Format/Info                 : Digital Theater Systems
    Codec ID                    : A_DTS
    Duration                    : 1 h 44 min
    Bit rate mode               : Constant
    Bit rate                    : 2 646 kb/s
    Channel(s)                  : 6 channels
    Channel layout              : C L R Ls Rs LFE
    Sampling rate               : 32.0 kHz
    Frame rate                  : 31.250 FPS (1024 SPF)
    Bit depth                   : 16 bits
    Compression mode            : Lossy
    Delay relative to video     : -43 ms
    Stream size                 : 1.92 GiB (46%)
    Title                       : dts 5.1-Eng 32000-1.92g
    Language                    : English
    Default                     : No
    Forced                      : No
    
    Text #1
    ID                          : 4
    Format                      : UTF-8
    Codec ID                    : S_TEXT/UTF8
    Codec ID/Info               : UTF-8 Plain Text
    Duration                    : 1 h 43 min
    Bit rate                    : 87 b/s
    Count of elements           : 2035
    Stream size                 : 66.0 KiB (0%)
    Title                       : SRT
    Language                    : English
    Default                     : Yes
    Forced                      : No
    
    Text #2
    ID                          : 5
    Format                      : UTF-8
    Codec ID                    : S_TEXT/UTF8
    Codec ID/Info               : UTF-8 Plain Text
    Duration                    : 1 h 40 min
    Bit rate                    : 96 b/s
    Count of elements           : 1848
    Stream size                 : 71.0 KiB (0%)
    Title                       : SRT-Hearing Impaired=ผู้บกพร่องทางเสียง
    Language                    : English
    Default                     : No
    Forced                      : No






    4.2 GB
    http://cornfile.com/1s8roywycfih
    http://www.mekafile.com/dl.php?f=yk8462bUh2eq
    2.1 GB
    http://cornfile.com/36c2v3n8izat
    http://www.mekafile.com/dl.php?f=pD34c0bUh2EC

  2. The Following 4 Users Say Thank You to Duckload.us For This Useful Post:

    apichartdear (05-21-2019), noi54 (05-22-2019), Posedon (05-26-2019), smakha (05-24-2019)

  3. #2
    Senior Member Posedon's Avatar
    Join Date
    Apr 2011
    Posts
    891
    Thanks
    930
    Thanked 0 Times in 0 Posts
    Thank you very much

+ Reply to Thread

Thread Information

Users Browsing this Thread

There are currently 1 users browsing this thread. (0 members and 1 guests)

     

Posting Permissions

  • You may not post new threads
  • You may not post replies
  • You may not post attachments
  • You may not edit your posts