+ Reply to Thread
Results 1 to 1 of 1
  1. #1
    Administrators Duckload.us's Avatar
    Join Date
    Dec 2010
    Posts
    103,694
    Thanks
    9
    Thanked 106,645 Times in 50,453 Posts

    Question (^*!*ҡ^)-American Hangman (2019) ԡѹ Χ-{Super HQ}-[1080p.br.x264][Sound Eng DTS 5.1/Thai AC3 5.1:MASTER::Modifide][SUB:Eng]



    *** American Hangman (2019) ԡѹ Χ ***

    1080p سҾ٧!
    § From Master

    American Hangman (2019)
    1h 39min | Thriller | 4 January 2019 (USA)
    Director: Wilson Coneybeare
    Writer: Wilson Coneybeare
    Stars: Donald Sutherland, Vincent Kartheiser, Oliver Dennis

    ·¡кصԸ㹡þԨóҤAme rican Hangmanͧ Wilson Coneybeare ¡ѡҵǼԾҡҷ繻иҹզҵ ժ§Թ絵ѴԹҷӧҹ Դ ͹Ź١عµѴԹ١ͧ

    Format : Matroska
    Format version : Version 4
    File size : 3.72 GiB
    Duration : 1 h 39 min
    Overall bit rate : 5 369 kb/s
    Movie name : American.Hangman.2018.1080p.

    Video
    ID : 1
    Format : AVC
    Format/Info : Advanced Video Codec
    Format profile : [email protected]
    Format settings : CABAC / 5 Ref Frames
    Format settings, CABAC : Yes
    Format settings, ReFrames : 5 frames
    Codec ID : V_MPEG4/ISO/AVC
    Duration : 1 h 39 min
    Bit rate : 4 545 kb/s
    Width : 1 920 pixels
    Height : 796 pixels
    Display aspect ratio : 2.40:1
    Frame rate mode : Constant
    Frame rate : 23.976 FPS
    Color space : YUV
    Chroma subsampling : 4:2:0
    Bit depth : 8 bits
    Scan type : Progressive
    Bits/(Pixel*Frame) : 0.124
    Stream size : 3.15 GiB (85%)
    Title : American.Hangman.2018.1080p.-{}Super HQ}
    Language : English
    Default : Yes
    Forced : No
    Color range : Limited
    Color primaries : BT.709
    Transfer characteristics : BT.709
    Matrix coefficients : BT.709

    Audio #1
    ID : 2
    Format : AC-3
    Format/Info : Audio Coding 3
    Commercial name : Dolby Digital
    Codec ID : A_AC3
    Duration : 1 h 39 min
    Bit rate mode : Constant
    Bit rate : 160 kb/s
    Channel(s) : 6 channels
    Channel layout : L R C LFE Ls Rs
    Sampling rate : 44.1 kHz
    Frame rate : 28.711 FPS (1536 SPF)
    Bit depth : 16 bits
    Compression mode : Lossy
    Delay relative to video : -42 ms
    Stream size : 113 MiB (3%)
    Title : 5.1 AC3-Thai 160k 113m
    Language : Thai
    Service kind : Complete Main
    Default : Yes
    Forced : No

    Audio #2
    ID : 3
    Format : DTS
    Format/Info : Digital Theater Systems
    Codec ID : A_DTS
    Duration : 1 h 39 min
    Bit rate mode : Constant
    Bit rate : 661 kb/s
    Channel(s) : 6 channels
    Channel layout : C L R Ls Rs LFE
    Sampling rate : 8 000 Hz
    Frame rate : 7.813 FPS (1024 SPF)
    Bit depth : 16 bits
    Compression mode : Lossy
    Delay relative to video : -42 ms
    Stream size : 469 MiB (12%)
    Title : dts 5.1-Eng 8000-468m
    Language : English
    Default : No
    Forced : No

    Text #1
    ID : 4
    Format : UTF-8
    Codec ID : S_TEXT/UTF8
    Codec ID/Info : UTF-8 Plain Text
    Duration : 1 h 31 min
    Bit rate : 83 b/s
    Count of elements : 1671
    Stream size : 56.2 KiB (0%)
    Title : SRT
    Language : English
    Default : Yes
    Forced : No

    Text #2
    ID : 5
    Format : UTF-8
    Codec ID : S_TEXT/UTF8
    Codec ID/Info : UTF-8 Plain Text
    Duration : 1 h 34 min
    Bit rate : 83 b/s
    Count of elements : 1789
    Stream size : 58.2 KiB (0%)
    Title : SRT-Hearing Impaired=麡ͧҧ§
    Language : English
    Default : No
    Forced : No

    Menu
    00:00:00.000 : en:1
    00:06:04.000 : en:2
    00:12:40.000 : en:3
    00:19:23.000 : en:4
    00:25:03.000 : en:5
    00:31:20.000 : en:6
    00:38:20.000 : en:7
    00:44:35.000 : en:8
    00:50:44.000 : en:9
    00:57:12.000 : en:10
    01:03:23.000 : en:11
    01:09:26.000 : en:12
    01:16:12.000 : en:13
    01:22:15.000 : en:14
    01:28:05.000 : en:15
    01:35:00.000 : en:16







    Download: cornfile
    http://cornfile.com/hwhn820miiul
    Download: mekafile
    http://www.mekafile.com/dl.php?f=kD6b31bUh2l5

  2. The Following 3 Users Say Thank You to Duckload.us For This Useful Post:

    apichartdear (05-21-2019), noi54 (05-22-2019), smakha (05-24-2019)

Thread Information

Users Browsing this Thread

There are currently 1 users browsing this thread. (0 members and 1 guests)

     

Posting Permissions

  • You may not post new threads
  • You may not post replies
  • You may not post attachments
  • You may not edit your posts