+ Reply to Thread
Results 1 to 2 of 2
  1. #1
    Administrators Duckload.us's Avatar
    Join Date
    Dec 2010
    Posts
    103,694
    Thanks
    9
    Thanked 106,644 Times in 50,453 Posts

    Question [ฝรั่ง]-[* ใหม่ Blu-ray 1080P *] • Mary Queen of Scots (2018) : แมรี่ ราชินีแห่งสกอตส์ [1080p] [* BluRay.x265 By [email protected] *] [พากย์ไทย 2.0 + เสียงอังกฤษ TrueHD.7.1] [บรรยายอังกฤษ From Blu-ray Master]




    เรื่องราวของความทรยศ หักหลัง
    กับการแย่งบัลลังก์ของกษัตริย์แห่งสกอตแลนด์ Mary Stuart พยามที่จะโค่นบัลลังก์ลูกพี่ลูกน้องของเธอ!
    &
    ••• 1080p.BluRay.x265 By [email protected] •••
    พากย์ไทย 2.0 + เสียงอังกฤษ TrueHD.7.1 + บรรยายอังกฤษ From Blu-ray Master


    Mary Queen of Scots เรื่องราวของราชินีแห่งฝรั่งเศสเมื่ออายุครบ 16 ปีและเป็นม่ายที่ 18 แมรี่ท้าทายอำนาจที่กดดันให้เธอแต่งงานใหม่ แต่เธอกลับไปที่สกอตแลนด์ถิ่นกำเนิดเพื่อเรียกคืนบัล ลังก์อันชอบธรรมของเธอ แต่ขณะนั้นสกอตแลนด์และอังกฤษตกอยู่ภายใต้การปกครองข องเอลิซาเบธที่ 1 ราชินีในวัยเยาว์ต่างเห็นกันและกันว่าเป็น พี่สาว /น้องสาว ที่เปี่ยมไปด้วยความน่าเกรงกลัวและน่าดึงดูดใจ ทั้งคู่เป็นคู่แข่งในด้านอำนาจ, ความรัก และการบริหารราชการท่ามกลางโลกของข้าราชบริพาธชาย ทั้งคู่ต้องตัดสินใจว่าจะเล่นเกมของการแต่งงานและการ รักษาเอกราชอย่างไร แมรี่อ้างสิทธิ์ในราชบัลลังก์อังกฤษ ซึ่งเป็นการคุกคามอำนาจอธิปไตยของเอลิซาเบธ การทรยศ การก่อจลาจลและแผนการสมคบคิดของข้าราชบริพารในศาลทำใ ห้บัลลังก์ทั้งคู่อยู่ในอันตราย และจะเป็นการเปลี่ยนแปลงประวัติศาสตร์ในที่สุด...!!


    Code:
    Format                      : Matroska
    Format version              : Version 4
    File size                   : 4.92 GiB
    Duration                    : 2 h 3 min
    Overall bit rate            : 5 687 kb/s
    Movie name                  : Mary Queen of Scots.2018.1080p.BluRay.x265 By [email protected]
    
    Video
    ID                          : 1
    Format                      : HEVC
    Format/Info                 : High Efficiency Video Coding
    Format profile              : Main [email protected]@Main
    Codec ID                    : V_MPEGH/ISO/HEVC
    Duration                    : 2 h 3 min
    Bit rate                    : 4 749 kb/s
    Width                       : 1 920 pixels
    Height                      : 804 pixels
    Display aspect ratio        : 2.40:1
    Frame rate mode             : Constant
    Frame rate                  : 23.976 (24000/1001) FPS
    Color space                 : YUV
    Chroma subsampling          : 4:2:0
    Bit depth                   : 10 bits
    Bits/(Pixel*Frame)          : 0.128
    Stream size                 : 4.11 GiB (84%)
    Title                       : Mary Queen of Scots.2018.1080p.BluRay.x265 By [email protected]
    Writing library             : x265 2.9+14-3023bd8b05c0:[Windows][GCC 8.2.1][64 bit] 10bit
    Encoding settings           : cpuid=1111039 / frame-threads=3 / numa-pools=8 / wpp / no-pmode / no-pme / no-psnr / no-ssim / log-level=2 / input-csp=1 / input-res=1920x804 / interlace=0 / total-frames=178263 / level-idc=0 / high-tier=1 / uhd-bd=0 / ref=4 / no-allow-non-conformance / no-repeat-headers / annexb / no-aud / no-hrd / info / hash=0 / no-temporal-layers / open-gop / min-keyint=23 / keyint=250 / gop-lookahead=0 / bframes=4 / b-adapt=2 / b-pyramid / bframe-bias=0 / rc-lookahead=25 / lookahead-slices=4 / scenecut=40 / radl=0 / no-splice / no-intra-refresh / ctu=64 / min-cu-size=8 / rect / no-amp / max-tu-size=32 / tu-inter-depth=1 / tu-intra-depth=1 / limit-tu=0 / rdoq-level=2 / dynamic-rd=0.00 / no-ssim-rd / signh-i-d-e / no-tskip / nr-intra=0 / nr-inter=0 / no-constrained-intra / strong-intra-smoothing / max-merge=3 / limit-refs=3 / limit-modes / me=3 / subme=3 / merange=57 / temporal-mvp / weightp / no-weightb / no-analyze-src-pics / deblock=0:0 / sao / no-sao-non-deblock / rd=4 / no-early-skip / rskip / no-fast-intra / no-tskip-fast / no-cu-lossless / no-b-intra / no-splitrd-skip / rdpenalty=0 / psy-rd=2.00 / psy-rdoq=1.00 / no-rd-refine / no-lossless / cbqpoffs=0 / crqpoffs=0 / rc=abr / bitrate=4750 / qcomp=0.60 / qpstep=4 / stats-write=0 / stats-read=2 / cplxblur=20.0 / qblur=0.5 / ipratio=1.40 / pbratio=1.30 / aq-mode=3 / aq-strength=1.00 / cutree / zone-count=0 / no-strict-cbr / qg-size=32 / no-rc-grain / qpmax=69 / qpmin=0 / no-const-vbv / sar=0 / overscan=0 / videoformat=5 / range=0 / colorprim=2 / transfer=2 / colormatrix=2 / chromaloc=0 / display-window=0 / max-cll=0,0 / min-luma=0 / max-luma=1023 / log2-max-poc-lsb=8 / vui-timing-info / vui-hrd-info / slices=1 / no-opt-qp-pps / no-opt-ref-list-length-pps / multi-pass-opt-rps / scenecut-bias=0.05 / no-opt-cu-delta-qp / aq-motion / no-hdr / no-hdr-opt / no-dhdr10-opt / no-idr-recovery-sei / analysis-reuse-level=5 / scale-factor=0 / refine-intra=0 / refine-inter=0 / refine-mv=0 / no-limit-sao / ctu-info=0 / no-lowpass-dct / refine-mv-type=0 / copy-pic=1 / max-ausize-factor=1.0 / no-dynamic-refine / no-single-sei
    Language                    : English
    Default                     : Yes
    Forced                      : No
    
    Audio #1
    ID                          : 2
    Format                      : AC-3
    Format/Info                 : Audio Coding 3
    Commercial name             : Dolby Digital
    Codec ID                    : A_AC3
    Duration                    : 2 h 3 min
    Bit rate mode               : Constant
    Bit rate                    : 384 kb/s
    Channel(s)                  : 2 channels
    Channel layout              : L R
    Sampling rate               : 48.0 kHz
    Frame rate                  : 31.250 FPS (1536 SPF)
    Bit depth                   : 16 bits
    Compression mode            : Lossy
    Stream size                 : 340 MiB (7%)
    Title                       : Thai 2.0 @ 384 kb/s By [email protected]
    Language                    : Thai
    Service kind                : Complete Main
    Default                     : Yes
    Forced                      : Yes
    
    Audio #2
    ID                          : 3
    Format                      : AAC LC
    Format/Info                 : Advanced Audio Codec Low Complexity
    Codec ID                    : A_AAC-2
    Duration                    : 2 h 3 min
    Bit rate                    : 543 kb/s
    Channel(s)                  : 8 channels
    Channel layout              : C L R Ls Rs Lb Rb LFE
    Sampling rate               : 48.0 kHz
    Frame rate                  : 46.875 FPS (1024 SPF)
    Compression mode            : Lossy
    Delay relative to video     : 20 ms
    Stream size                 : 481 MiB (10%)
    Title                       : English 7.1 @ 543 kb/s
    Language                    : English
    Default                     : No
    Forced                      : No
    
    Text
    ID                          : 4
    Format                      : VobSub
    Codec ID                    : S_VOBSUB
    Codec ID/Info               : Picture based subtitle format used on DVDs
    Duration                    : 1 h 54 min
    Bit rate                    : 9 008 b/s
    Count of elements           : 1369
    Stream size                 : 7.39 MiB (0%)
    Title                       : English
    Language                    : English
    Default                     : No
    Forced                      : No
    
    Menu
    00:00:00.000                : en:Chapter 01
    00:06:10.536                : en:Chapter 02
    00:10:38.679                : en:Chapter 03
    00:16:07.091                : en:Chapter 04
    00:21:06.098                : en:Chapter 05
    00:24:59.289                : en:Chapter 06
    00:30:21.736                : en:Chapter 07
    00:39:02.840                : en:Chapter 08
    00:44:19.657                : en:Chapter 09
    00:51:17.991                : en:Chapter 10
    01:00:02.599                : en:Chapter 11
    01:04:18.855                : en:Chapter 12
    01:12:19.585                : en:Chapter 13
    01:18:06.973                : en:Chapter 14
    01:26:53.666                : en:Chapter 15
    01:31:19.474                : en:Chapter 16
    01:38:32.781                : en:Chapter 17
    01:42:30.185                : en:Chapter 18
    01:51:35.397                : en:Chapter 19
    01:56:53.089                : en:Chapter 20














    Download: cornfile
    http://cornfile.com/6klyx1jcdqnp
    Download: mekafile
    http://www.mekafile.com/dl.php?f=4Ff21abUh2sx

  2. The Following 5 Users Say Thank You to Duckload.us For This Useful Post:

    amorn wichian (05-21-2019), apichartdear (05-21-2019), noi54 (05-22-2019), smakha (05-24-2019), Tatum03 (05-21-2019)

  3. #2
    Senior Member
    Join Date
    Oct 2013
    Location
    Thailand
    Posts
    1,091
    Thanks
    967
    Thanked 0 Times in 0 Posts
    ขอบคุณมาก

+ Reply to Thread

Thread Information

Users Browsing this Thread

There are currently 1 users browsing this thread. (0 members and 1 guests)

     

Posting Permissions

  • You may not post new threads
  • You may not post replies
  • You may not post attachments
  • You may not edit your posts