ภาพยนตร์ผลงานของ ลินน์ เซาเทอร์แลนด์
ผลงานโดยมือเขียนบทจากอนิเมชั่นสุดคลาสสิคมากมายทั้ง The Lion King, Pocahontas และ Aladdin จับมือกับผู้กำกับ 'ลินเน่ เซาท์เธอร์แลนด์'!
&
••• 1080p.WEB-DL.AC3.THR5.1.H264 By [email protected] •••
พากย์ไทยโรง 5.1 + เสียงอังกฤษ DD5.1 + บรรยายอังกฤษ

Cinderella and the Secret Prince จากเรื่องเล่าตำนานคลาสสิคสู่ 'Cinderella and the Secret Prince ซินเดอเรลล่า กับเจ้าชายปริศนา' ผลงานโดยมือเขียนบทจากอนิเมชั่นสุดคลาสสิคมากมายทั้ง The Lion King, Pocahontas และ Aladdin จับมือกับผู้กำกับ 'ลินเน่ เซาท์เธอร์แลนด์' หนึ่งในทีมงานผู้สร้างจาก Mulan ระหว่างงานเต้นรำในพระราชวัง เจ้าชายได้ตกหลุมรักซินเดอเรลล่า ตั้งแต่แรกพบ แต่คริสตัลนางฟ้าประจำตัวได้ค้นเจอความลับที่ถูกปกปิ ดเอาไว้ ว่าเจ้าชายตัวจริงถูกคำสาปของแม่มดที่ชั่วร้าย สาปให้กลายเป็นหนู ขณะที่เจ้าชายที่อยู่ในงานกลับกลายเป็นตัวปลอม หลังจากแม่มดได้ออกคำสั่งให้ทหารในพระราชวัง เข้าจับกุมซินเดอเรลล่า คริสตัลได้พาซินเดอเรลล่าและหนูทั้งสามตัวไปหลบภัยที ่พื้นที่ศักดิ์สิทธิ์ และได้ค้นพบแหวนเวทมนตร์ปริศนา หลังจากหาวิธี เพื่อช่วยให้เจ้าชายที่ถูกสาปกลับคืนร่างเป็นมนุษย์ ด้วยพลังของแหวนเวทมนตร์ เจ้าชายได้บุกไปยังปราสาทเพื่อจัดการกับแม่มดผู้ชั่ว ร้าย และทวงปราสาทของตัวเองคืน ระหว่างการต่อสู้ที่ดุเดือด แม่มดได้ร่ายเวทมนตร์ใส่ซินเดอเรลล่า สาปให้เธอกลายเป็นหิน เจ้าชายต้องเลือกที่จะยกแหวนเวทมนตร์เพื่อถอนคำสาปช่ วยเหลือซินเดอเรลล่า แลกกับการที่ตัวเองต้องกลับไปเป็นหนูอีกครั้ง หรือซินเดอเรลล่าจะต้องเป็นหินไปตลอดกาล!!

Format : Matroska
Format version : Version 4
File size : 3.30 GiB
Duration : 1 h 27 min
Overall bit rate : 5 428 kb/s
Movie name : Cinderella and the Secret Prince.2019.1080p.WEB-DL.AC3.THR5.1.H264 By [email protected]

Video
ID : 1
Format : AVC
Format/Info : Advanced Video Codec
Format profile : [email protected]
Format settings : CABAC / 5 Ref Frames
Format settings, CABAC : Yes
Format settings, Reference : 5 frames
Codec ID : V_MPEG4/ISO/AVC
Duration : 1 h 27 min
Bit rate : 4 530 kb/s
Width : 1 920 pixels
Height : 818 pixels
Display aspect ratio : 2.35:1
Frame rate mode : Constant
Frame rate : 24.000 FPS
Color space : YUV
Chroma subsampling : 4:2:0
Bit depth : 8 bits
Scan type : Progressive
Bits/(Pixel*Frame) : 0.120
Stream size : 2.76 GiB (83%)
Title : Cinderella and the Secret Prince.2019.1080p.WEB-DL.AC3.THR5.1.H264 By [email protected]
Language : English
Default : Yes
Forced : No
Color range : Limited
Color primaries : BT.709
Transfer characteristics : BT.709
Matrix coefficients : BT.709

Audio #1
ID : 2
Format : AC-3
Format/Info : Audio Coding 3
Commercial name : Dolby Digital
Codec ID : A_AC3
Duration : 1 h 27 min
Bit rate mode : Constant
Bit rate : 384 kb/s
Channel(s) : 6 channels
Channel layout : L R C LFE Ls Rs
Sampling rate : 48.0 kHz
Frame rate : 31.250 FPS (1536 SPF)
Bit depth : 16 bits
Compression mode : Lossy
Stream size : 239 MiB (7%)
Title : English DD5.1 @ 384 kb/s
Language : English
Service kind : Complete Main
Default : No
Forced : No

Audio #2
ID : 3
Format : AC-3
Format/Info : Audio Coding 3
Commercial name : Dolby Digital
Codec ID : A_AC3
Duration : 1 h 27 min
Bit rate mode : Constant
Bit rate : 512 kb/s
Channel(s) : 6 channels
Channel layout : L R C LFE Ls Rs
Sampling rate : 48.0 kHz
Frame rate : 31.250 FPS (1536 SPF)
Bit depth : 16 bits
Compression mode : Lossy
Stream size : 319 MiB (9%)
Title : ThaiRong 5.1 @ 512 kb/s By [email protected]
Language : Thai
Service kind : Complete Main
Default : Yes
Forced : Yes

Text
ID : 4
Format : UTF-8
Codec ID : S_TEXT/UTF8
Codec ID/Info : UTF-8 Plain Text
Duration : 1 h 17 min
Bit rate : 39 b/s
Count of elements : 1038
Stream size : 22.7 KiB (0%)
Title : English
Language : English
Default : Yes
Forced : No

Menu
00:00:00.000 : en:1
00:10:27.708 : en:2
00:21:01.666 : en:3
00:30:37.291 : en:4
00:36:48.916 : en:5
00:42:31.541 : en:6
00:55:31.832 : en:7
01:03:28.707 : en:8
01:09:25.457 : en:9
01:17:44.582 : en:10













Download: cornfile
http://cornfile.com/s3w0qcalkjq7
Download: mekafile
meka อัพไม่ได้ครับ หนังค่าย M