+ Reply to Thread
Results 1 to 2 of 2
  1. #1
    Administrators Duckload.us's Avatar
    Join Date
    Dec 2010
    Posts
    107,694
    Thanks
    7
    Thanked 112,493 Times in 52,085 Posts

    Question [ฝรั่ง] World War Z (2013) [MKV HEVC 4K HDR10] [English : Flac 7.1 Ch / HE-AAC 7.1 Ch] [พากย์ไทย : HE-AAC 5.1 Ch] [บรรยาย PGS : English / ไทย]



    World War Z (2013) [MKV HEVC 4K HDR10]
    [English : Flac 7.1 Ch / HE-AAC 7.1 Ch] [พากย์ไทย : HE-AAC 5.1 Ch] [บรรยาย PGS : English / ไทย]

    ในวันธรรมดาวันหนึ่ง เจอร์รี่ เลน และครอบครัว พบว่าการเดินทางบนท้องถนนที่เคยเงียบสงบของพวกเขา ต้องเผชิญหน้ากับการจราจรติดขัดกลางเมือง เลนที่ในอดีตเคยเป็นเจ้าหน้าที่สืบสวนขององค์การสหปร ะชาชาติ รู้สึกว่านี่ไม่ใช่รถติดธรรมดา และเมื่อมีเฮลิคอปเตอร์ของตำรวจบินอยู่ร่อนอยู่เหนือ ท้องฟ้า และมีมอเตอร์ไซค์ของตำรวจวิ่งไปมาอยู่เบื้องล่าง ทั้งเมืองต้องเผชิญกับเหตุโกลาหล

    บางสิ่งบางอย่างกำลังเป็นเหตุให้ผู้คนทำร้ายกันอย่าง รุนแรง มันคือเชื้อไวรัสที่แพร่กระจายได้ผ่านการโดนกัดเพียง ครั้งเดียว และเปลี่ยนมนุษย์ที่มีสุขภาพแข็งแรงดีให้กลายเป็นสิ่ งมีชีวิตที่จดจำอดีตไม่ได้ ไม่มีความรู้สึกรับรู้ ไม่มีความคิด และดุร้าย เพื่อนบ้านหันมาทำร้ายเพื่อนบ้าน คนแปลกหน้าที่มีน้ำใจช่วยเหลือจู่ ๆ ก็กลายเป็นศัตรูตัวร้าย ต้นกำเนิดของไวรัสชนิดนี้ยังไม่ทราบที่มา และจำนวนคนติดเชื้อเพิ่มมากขึ้นในแต่ละวัน จนกลายเป็นโรคระบาดไปทั่วโลก เมื่อผู้ติดเชื้อมีชัยเหนือกองทัพของโลก และทำให้หลายรัฐบาลต้องล่มสลายเลนถูกสถานการณ์บีบให้ ต้องหวนกลับไปใช้ชีวิตแบบเก่าที่เต็มไปด้วยอันตราย เพื่อรับประกันความปลอดภัยของครอบครัวของเขา และเป็นผู้นำการค้นหาที่มาของโรคระบาดทั่วโลก อันจะเป็นหนทางที่จะหยุดการแพร่ระบาดที่ไม่มีทีท่าว่ าจะหยุดได้

    Code:
    General
    Complete name                  : World War Z (2013) 4K [EN Flac 7.1 TH HE-AAC 5.1].mkv
    Format                         : Matroska
    Format version                 : Version 4
    File size                      : 12.3 GiB
    Duration                       : 2 h 3 min
    Overall bit rate mode          : Variable
    Overall bit rate               : 14.3 Mb/s
    Movie name                     : World War Z (2013) 4K [EN Flac 7.1 TH HE-AAC 5.1]
    Encoded date                   : UTC 2019-05-20 10:58:33
    Writing application            : mkvmerge v34.0.0 ('Sight and Seen') 64-bit
    Writing library                : libebml v1.3.7 + libmatroska v1.5.0
    
    Video
    ID                             : 1
    Format                         : HEVC
    Format/Info                    : High Efficiency Video Coding
    Commercial name                : HDR10
    Format profile                 : Main [email protected]@High
    Codec ID                       : V_MPEGH/ISO/HEVC
    Duration                       : 2 h 3 min
    Bit rate                       : 9 696 kb/s
    Width                          : 3 840 pixels
    Height                         : 2 160 pixels
    Display aspect ratio           : 16:9
    Frame rate mode                : Constant
    Frame rate                     : 23.976 (24000/1001) FPS
    Color space                    : YUV
    Chroma subsampling             : 4:2:0 (Type 2)
    Bit depth                      : 10 bits
    Bits/(Pixel*Frame)             : 0.049
    Stream size                    : 8.33 GiB (68%)
    Default                        : Yes
    Forced                         : No
    Color range                    : Limited
    Color primaries                : BT.2020
    Transfer characteristics       : PQ
    Matrix coefficients            : BT.2020 non-constant
    Mastering display color primar : Display P3
    Mastering display luminance    : min: 0.0050 cd/m2, max: 6000 cd/m2
    Maximum Content Light Level    : 6000 cd/m2
    Maximum Frame-Average Light Le : 640 cd/m2
    
    Audio #1
    ID                             : 2
    Format                         : FLAC
    Format/Info                    : Free Lossless Audio Codec
    Codec ID                       : A_FLAC
    Duration                       : 2 h 3 min
    Bit rate mode                  : Variable
    Bit rate                       : 4 294 kb/s
    Channel(s)                     : 8 channels
    Channel layout                 : L R C LFE Lb Lr Ls Rs
    Sampling rate                  : 48.0 kHz
    Frame rate                     : 11.719 FPS (4096 SPF)
    Bit depth                      : 24 bits
    Compression mode               : Lossless
    Stream size                    : 3.69 GiB (30%)
    Writing library                : libFLAC 1.2.1 (UTC 2007-09-17)
    Language                       : English
    Default                        : Yes
    Forced                         : No
    
    Audio #2
    ID                             : 3
    Format                         : AAC LC SBR
    Format/Info                    : Advanced Audio Codec Low Complexity with Spectral Band Replication
    Commercial name                : HE-AAC
    Format settings                : Explicit
    Codec ID                       : A_AAC-2
    Duration                       : 2 h 3 min
    Bit rate                       : 192 kb/s
    Channel(s)                     : 8 channels
    Channel layout                 : C L R Ls Rs Lb Rb LFE
    Sampling rate                  : 48.0 kHz
    Frame rate                     : 23.438 FPS (2048 SPF)
    Compression mode               : Lossy
    Delay relative to video        : 36 ms
    Stream size                    : 168 MiB (1%)
    Language                       : English
    Default                        : No
    Forced                         : No
    
    Audio #3
    ID                             : 4
    Format                         : AAC LC SBR
    Format/Info                    : Advanced Audio Codec Low Complexity with Spectral Band Replication
    Commercial name                : HE-AAC
    Format settings                : Explicit
    Codec ID                       : A_AAC-2
    Duration                       : 2 h 3 min
    Bit rate                       : 144 kb/s
    Channel(s)                     : 6 channels
    Channel layout                 : C L R Ls Rs LFE
    Sampling rate                  : 48.0 kHz
    Frame rate                     : 23.438 FPS (2048 SPF)
    Compression mode               : Lossy
    Delay relative to video        : 36 ms
    Stream size                    : 126 MiB (1%)
    Language                       : Thai
    Default                        : No
    Forced                         : No
    
    Text #1
    ID                             : 5
    Format                         : PGS
    Muxing mode                    : zlib
    Codec ID                       : S_HDMV/PGS
    Codec ID/Info                  : Picture based subtitle format used on BDs/HD-DVDs
    Duration                       : 1 h 54 min
    Bit rate                       : 28.9 kb/s
    Count of elements              : 2496
    Stream size                    : 23.6 MiB (0%)
    Language                       : English
    Default                        : No
    Forced                         : No
    
    Text #2
    ID                             : 6
    Format                         : PGS
    Muxing mode                    : zlib
    Codec ID                       : S_HDMV/PGS
    Codec ID/Info                  : Picture based subtitle format used on BDs/HD-DVDs
    Duration                       : 1 h 54 min
    Bit rate                       : 30.1 kb/s
    Count of elements              : 2198
    Stream size                    : 24.6 MiB (0%)
    Language                       : Thai
    Default                        : Yes
    Forced                         : No
    
    Menu
    00:00:00.000                   : en:Chapter 1
    00:05:05.180                   : en:Chapter 2
    00:13:54.000                   : en:Chapter 3
    00:22:43.195                   : en:Chapter 4
    00:29:46.034                   : en:Chapter 5
    00:35:21.494                   : en:Chapter 6
    00:42:23.458                   : en:Chapter 7
    00:52:37.946                   : en:Chapter 8
    00:58:53.822                   : en:Chapter 9
    01:07:18.868                   : en:Chapter 10
    01:15:11.756                   : en:Chapter 11
    01:24:02.037                   : en:Chapter 12
    01:29:08.802                   : en:Chapter 13
    01:34:50.518                   : en:Chapter 14
    01:43:45.469                   : en:Chapter 15
    01:52:17.981                   : en:Chapter 16
    01:55:51.653                   : en:Chapter 17





    Download: cornfile
    http://cornfile.com/51lrqmdm88n9
    Download: mekafile
    http://www.mekafile.com/dl.php?f=cyaa16bUhctC

  2. The Following User Says Thank You to Duckload.us For This Useful Post:

    Wesker_TOT (05-28-2019)

  3. #2
    Senior Member
    Join Date
    Dec 2013
    Posts
    1,819
    Thanks
    3,757
    Thanked 0 Times in 0 Posts
    ขอบคุณมากๆครับ...

+ Reply to Thread

Thread Information

Users Browsing this Thread

There are currently 1 users browsing this thread. (0 members and 1 guests)

     

Posting Permissions

  • You may not post new threads
  • You may not post replies
  • You may not post attachments
  • You may not edit your posts