+ Reply to Thread
Results 1 to 2 of 2
  1. #1
    Administrators Duckload.us's Avatar
    Join Date
    Dec 2010
    Posts
    107,197
    Thanks
    9
    Thanked 111,609 Times in 51,867 Posts

    Question [ฝรั่ง] Hansel & Gretel: Witch Hunters (2013) [MKV HEVC 4K HDR10] [English : Flac 5.1 Ch / HE-AAC 5.1 Ch] [พากย์ไทย : HE-AAC 5.1 Ch] [บรรยาย PGS : English / ไทย]



    Hansel & Gretel: Witch Hunters (2013) [MKV HEVC 4K HDR10]
    [English : Flac 5.1 Ch / HE-AAC 5.1 Ch] [พากย์ไทย : HE-AAC 5.1 Ch] [บรรยาย PGS : English / ไทย]

    ตำนานล่าแม่มดบทใหม่ของน้องสาวและพี่ชายในบ้านขนมปัง ” การกลับมาอีกครั้งที่จะทำให้คุณได้รับรู้เรื่องราวอั นเป็นไปใน 15 ปีให้หลัง
    ของสองพี่น้อง ฮันเซล และ เกรเทล หลังจากหลายปีก่อนเขาทั้งคู่เอาตัวรอด ออกมาจากบ้านขนมปังที่เกือบถูกแม่มดใจร้ายย่างพวกเขา สด ๆ มาได้
    และกำจัดนางในเตาอบขนมปัง ณ บ้านนั้นจวบจนวันนี้ ความแค้นของทั้งคู่ยังคุกกรุ่น สองพี่น้องกับแม่มดเป็นอะไรที่ไม่ถูกกัน
    พวกเขากลายเป็นนักล่าแม่มดตัวยงของเมือง ซึ่งต่อมาไม่นาน หน้าที่ของทั้งสองได้ถูกทดสอบครั้งใหญ่กับแม่มดตนใหม ่ ที่พร้อมจะคร่าชีวิต
    เด็กผู้บริสุทธิ์ยกเมืองในพิธีกรรมของเจ้าหล่อน ทำให้ทั้งคู่ต้องยับยั้งเหตุการณ์ ความชั่วร้ายครั้งนี้ของนางให้ได้!!!

    Code:
    General
    Complete name                  : Hansel and Gretel Witch Hunters (2013) 4K [EN Flac 5.1 TH HE-AAC 5.1].mkv
    Format                         : Matroska
    Format version                 : Version 4
    File size                      : 8.28 GiB
    Duration                       : 1 h 27 min
    Overall bit rate mode          : Variable
    Overall bit rate               : 13.5 Mb/s
    Movie name                     : Hansel and Gretel Witch Hunters (2013) 4K [EN Flac 5.1 TH HE-AAC 5.1]
    Encoded date                   : UTC 2019-05-20 07:36:38
    Writing application            : mkvmerge v34.0.0 ('Sight and Seen') 64-bit
    Writing library                : libebml v1.3.7 + libmatroska v1.5.0
    
    Video
    ID                             : 1
    Format                         : HEVC
    Format/Info                    : High Efficiency Video Coding
    Commercial name                : HDR10
    Format profile                 : Main [email protected]@High
    Codec ID                       : V_MPEGH/ISO/HEVC
    Duration                       : 1 h 27 min
    Bit rate                       : 9 737 kb/s
    Width                          : 3 840 pixels
    Height                         : 2 160 pixels
    Display aspect ratio           : 16:9
    Frame rate mode                : Constant
    Frame rate                     : 23.976 (24000/1001) FPS
    Color space                    : YUV
    Chroma subsampling             : 4:2:0 (Type 2)
    Bit depth                      : 10 bits
    Bits/(Pixel*Frame)             : 0.049
    Stream size                    : 5.98 GiB (72%)
    Default                        : Yes
    Forced                         : No
    Color range                    : Limited
    Color primaries                : BT.2020
    Transfer characteristics       : PQ
    Matrix coefficients            : BT.2020 non-constant
    Mastering display color primar : Display P3
    Mastering display luminance    : min: 0.0001 cd/m2, max: 1000 cd/m2
    
    Audio #1
    ID                             : 2
    Format                         : FLAC
    Format/Info                    : Free Lossless Audio Codec
    Codec ID                       : A_FLAC
    Duration                       : 1 h 27 min
    Bit rate mode                  : Variable
    Bit rate                       : 3 412 kb/s
    Channel(s)                     : 6 channels
    Channel layout                 : L R C LFE Ls Rs
    Sampling rate                  : 48.0 kHz
    Frame rate                     : 11.719 FPS (4096 SPF)
    Bit depth                      : 24 bits
    Compression mode               : Lossless
    Stream size                    : 2.10 GiB (25%)
    Writing library                : libFLAC 1.2.1 (UTC 2007-09-17)
    Language                       : English
    Default                        : Yes
    Forced                         : No
    
    Audio #2
    ID                             : 3
    Format                         : AAC LC SBR
    Format/Info                    : Advanced Audio Codec Low Complexity with Spectral Band Replication
    Commercial name                : HE-AAC
    Format settings                : Explicit
    Codec ID                       : A_AAC-2
    Duration                       : 1 h 27 min
    Bit rate                       : 154 kb/s
    Channel(s)                     : 6 channels
    Channel layout                 : C L R Ls Rs LFE
    Sampling rate                  : 48.0 kHz
    Frame rate                     : 23.438 FPS (2048 SPF)
    Compression mode               : Lossy
    Delay relative to video        : 36 ms
    Stream size                    : 97.0 MiB (1%)
    Language                       : English
    Default                        : No
    Forced                         : No
    
    Audio #3
    ID                             : 4
    Format                         : AAC LC SBR
    Format/Info                    : Advanced Audio Codec Low Complexity with Spectral Band Replication
    Commercial name                : HE-AAC
    Format settings                : Explicit
    Codec ID                       : A_AAC-2
    Duration                       : 1 h 27 min
    Bit rate                       : 152 kb/s
    Channel(s)                     : 6 channels
    Channel layout                 : C L R Ls Rs LFE
    Sampling rate                  : 48.0 kHz
    Frame rate                     : 23.438 FPS (2048 SPF)
    Compression mode               : Lossy
    Delay relative to video        : 36 ms
    Stream size                    : 95.9 MiB (1%)
    Language                       : Thai
    Default                        : No
    Forced                         : No
    
    Text #1
    ID                             : 5
    Format                         : PGS
    Muxing mode                    : zlib
    Codec ID                       : S_HDMV/PGS
    Codec ID/Info                  : Picture based subtitle format used on BDs/HD-DVDs
    Duration                       : 1 h 21 min
    Bit rate                       : 28.1 kb/s
    Count of elements              : 2086
    Stream size                    : 16.4 MiB (0%)
    Language                       : English
    Default                        : No
    Forced                         : No
    
    Text #2
    ID                             : 6
    Format                         : PGS
    Muxing mode                    : zlib
    Codec ID                       : S_HDMV/PGS
    Codec ID/Info                  : Picture based subtitle format used on BDs/HD-DVDs
    Duration                       : 1 h 26 min
    Bit rate                       : 15.6 kb/s
    Count of elements              : 1476
    Stream size                    : 9.65 MiB (0%)
    Language                       : Thai
    Default                        : No
    Forced                         : No
    
    Menu
    00:00:00.000                   : en:(01)00:00:00:000
    00:08:57.828                   : en:(02)00:08:57:828
    00:15:58.791                   : en:(03)00:15:58:791
    00:24:08.113                   : en:(04)00:24:08:113
    00:32:18.937                   : en:(05)00:32:18:937
    00:40:13.869                   : en:(06)00:40:13:869
    00:46:46.637                   : en:(07)00:46:46:637
    00:52:23.098                   : en:(08)00:52:23:098
    01:00:21.034                   : en:(09)01:00:21:034
    01:05:06.652                   : en:(10)01:05:06:652
    01:12:50.657                   : en:(11)01:12:50:657
    01:19:02.863                   : en:(12)01:19:02:863
    01:27:56.354                   : en:(13)01:27:56:354





    Download: cornfile
    http://cornfile.com/n51raa2rct2p
    Download: mekafile
    http://www.mekafile.com/dl.php?f=Pjbf9cbUhcjN

  2. The Following User Says Thank You to Duckload.us For This Useful Post:

    Wesker_TOT (05-28-2019)

  3. #2
    Senior Member
    Join Date
    Dec 2013
    Posts
    1,803
    Thanks
    3,745
    Thanked 0 Times in 0 Posts
    ขอบคุณครับ...

+ Reply to Thread

Thread Information

Users Browsing this Thread

There are currently 1 users browsing this thread. (0 members and 1 guests)

     

Posting Permissions

  • You may not post new threads
  • You may not post replies
  • You may not post attachments
  • You may not edit your posts