รักร้ายของยัยต้มตุ๋น ภาค1

กู้เฉิงเจ๋อ ผู้บริหารระดับสูงของกลุ่มห้างสรรพสินค้าตระกูลกู้ และเป็นลูกบุญธรรมของ คุณนายกู้ แม้ความต้องการของคุณนายอยากให้ลูกชายแท้ๆของเธออย่า งกู้จิ่นอวิ่นมารับหน้าที่นี้แทน แต่ กู้จิ่นอวิ่น ก็ไม่เคยสนใจธุรกิจของบ้านเลย ในขณะเดียวกัน กู้เฉิงเจ๋อ ก็ได้รู้จักกับ หลี่เยี่ยนซูดีไซเนอร์สาวโดยบังเอิญ ที่เคยมีความสัมพันธ์ลึกซึ้งกับกู้จิ่นอวิ่นมาก่อน เรื่องราวจะชุลมุนพัวพันกันยังไง ต้องติดตาม...


รักร้ายของยัยต้มตุ๋น ภาค 2

กู้จิ่นอวิ่นเริ่มตั้งใจทำงานตามคำชี้แนะของกู้เฉิงเ จ๋อ และตัดสินใจว่าจะกู้จิ่นอวิ่นว่าจะสานสัมพันธ์ในอดีต กับหลี่เยี่ยนซูอีกครั้ง แต่หลี่เยี่ยนซูไม่ได้มีใจให้เขาแล้ว และเมื่อเรื่องถึงหูคนในบ้านตระกูลกู้ ทุกคนต่างไม่เห็นด้วย และได้สั่งให้กู้เฉิงเจ๋อหาทางกีดกันถ่านไฟเก่าคู่นี ้ไม่ให้ปะทุขึ้นอีก แต่ใครจะรู้ล่ะว่าภารกิจการกีดกันความรักครั้งนี้ จะทำให้กู้เฉิงเจ๋อ กับ หลี่เยี่ยนซูมาปิ๊งกันเองซะได้...


Format : Matroska
Format version : Version 4
File size : 775 MiB
Duration : 44 min 0 s
Overall bit rate : 2 463 kb/s
Movie name : The.Fox's.Summer.S01E01.1080p.HDTV.x264_by SkiesIT
Encoded date : UTC 2019-05-19 13:17:07
Writing application : mkvmerge v34.0.0 ('Sight and Seen') 64-bit
Writing library : libebml v1.3.7 + libmatroska v1.5.0

Video
ID : 1
Format : AVC
Format/Info : Advanced Video Codec
Format profile : [email protected]
Format settings : CABAC / 4 Ref Frames
Format settings, CABAC : Yes
Format settings, Reference frames : 4 frames
Codec ID : V_MPEG4/ISO/AVC
Duration : 43 min 59 s
Bit rate : 1 992 kb/s
Width : 1 920 pixels
Height : 1 080 pixels
Display aspect ratio : 16:9
Frame rate mode : Constant
Frame rate : 25.000 FPS
Color space : YUV
Chroma subsampling : 4:2:0
Bit depth : 8 bits
Scan type : Progressive
Bits/(Pixel*Frame) : 0.038
Stream size : 627 MiB (81%)
Title : The.Fox's.Summer.S01E01.1080p.HDTV.x264_by SkiesIT
Default : Yes
Forced : No
Color range : Limited
Color primaries : BT.709
Transfer characteristics : BT.709
Matrix coefficients : BT.709

Audio
ID : 2
Format : AC-3
Format/Info : Audio Coding 3
Commercial name : Dolby Digital
Codec ID : A_AC3
Duration : 44 min 0 s
Bit rate mode : Constant
Bit rate : 448 kb/s
Channel(s) : 6 channels
Channel layout : L R C LFE Ls Rs
Sampling rate : 44.1 kHz
Frame rate : 28.711 FPS (1536 SPF)
Bit depth : 16 bits
Compression mode : Lossy
Stream size : 141 MiB (18%)
Language : Chinese
Service kind : Complete Main
Default : Yes
Forced : No

Text #1
ID : 3
Format : UTF-8
Codec ID : S_TEXT/UTF8
Codec ID/Info : UTF-8 Plain Text
Duration : 43 min 39 s
Bit rate : 144 b/s
Count of elements : 699
Stream size : 46.3 KiB (0%)
Title : SRT
Language : Thai
Default : Yes
Forced : No

Text #2
ID : 4
Format : PGS
Muxing mode : zlib
Codec ID : S_HDMV/PGS
Codec ID/Info : Picture based subtitle format used on BDs/HD-DVDs
Duration : 43 min 39 s
Bit rate : 37.7 kb/s
Count of elements : 1398
Stream size : 11.8 MiB (2%)
Title : PGS
Language : Thai
Default : No
Forced : No















29.93 GB
http://www.filecondo.com/dl.php?f=Me7f091Htr9a