+ Reply to Thread
Results 1 to 2 of 2
  1. #1
    Administrators Duckload.us's Avatar
    Join Date
    Dec 2010
    Posts
    103,441
    Thanks
    9
    Thanked 106,332 Times in 50,348 Posts

    Question [ฝรั่ง]-How to Train Your Dragon: The Hidden World (2019) อภินิหารไวกิ้งพิชิตมังกร 3-WEB-DL.H.264.1080p. [Master]-[ENG5.1+THA MASTER ENG+THA PGS]




    จุดเริ่มต้นจากมิตรภาพเหลือเชื่อระหว่างไวกิ้งหนุ่มก ับมังกรไนท์ ฟิวรี ที่น่าสะพรึงกลัว ได้กลายเป็นไตรภาคอีพิคที่บอกเล่าเรื่องราวชีวิตของพ วกเขา ในตำนานบทใหม่นี้ ในที่สุด ฮิคคัพและทูธเลสก็จะได้ค้นพบโชคชะตาที่แท้จริงของพวก เขาเสียที นั่นคือการเป็นหัวหน้าหมู่บ้านในฐานะผู้นำของเหล่าเบ ิร์ค เคียงข้างแอสทริด และการเป็นมังกรผู้นำฝูง ในขณะที่ทั้งคู่กำลังจะขึ้นครองอำนาจ ภัยคุกคามที่ร้ายกาจที่สุดเท่าที่พวกเขาเคยเผชิญ รวมถึงการปรากฏตัวของไนท์ ฟิวรีเพศเมีย จะทดสอบสายสัมพันธ์มิตรภาพระหว่างพวกเขาอย่างที่ไม่เ คยปรากฏมาก่อน

    General
    Unique ID : 6342566249477272232799916845891761064 (0x4C588A8D908C4F6D3C404D67ADAB3A8)
    Complete name : C:UsersAdministratorDownloadstorrentHow.to.Train.Y [email protected]
    Format : Matroska
    Format version : Version 4
    File size : 3.68 GiB
    Duration : 1 h 44 min
    Overall bit rate : 5 063 kb/s
    Encoded date : UTC 2019-05-22 08:23:07
    Writing application : mkvmerge v34.0.0 ('Sight and Seen') 64-bit
    Writing library : libebml v1.3.7 + libmatroska v1.5.0

    Video
    ID : 1
    Format : AVC
    Format/Info : Advanced Video Codec
    Format profile : [email protected]
    Format settings : CABAC / 5 Ref Frames
    Format settings, CABAC : Yes
    Format settings, RefFrames : 5 frames
    Codec ID : V_MPEG4/ISO/AVC
    Duration : 1 h 44 min
    Bit rate : 4 524 kb/s
    Width : 1 920 pixels
    Height : 816 pixels
    Display aspect ratio : 2.35:1
    Frame rate mode : Constant
    Frame rate : 23.976 (23976/1000) FPS
    Color space : YUV
    Chroma subsampling : 4:2:0
    Bit depth : 8 bits
    Scan type : Progressive
    Bits/(Pixel*Frame) : 0.120
    Stream size : 3.29 GiB (89%)
    Language : English
    Default : Yes
    Forced : No
    Color range : Limited
    Color primaries : BT.709
    Transfer characteristics : BT.709
    Matrix coefficients : BT.709

    Audio #1
    ID : 2
    Format : AC-3
    Format/Info : Audio Coding 3
    Commercial name : Dolby Digital
    Codec ID : A_AC3
    Duration : 1 h 44 min
    Bit rate mode : Constant
    Bit rate : 384 kb/s
    Channel(s) : 6 channels
    Channel layout : L R C LFE Ls Rs
    Sampling rate : 48.0 kHz
    Frame rate : 31.250 FPS (1536 SPF)
    Bit depth : 16 bits
    Compression mode : Lossy
    Delay relative to video : -42 ms
    Stream size : 286 MiB (8%)
    Title : eng5.1
    Language : English
    Service kind : Complete Main
    Default : Yes
    Forced : No

    Audio #2
    ID : 3
    Format : AAC LC
    Format/Info : Advanced Audio Codec Low Complexity
    Codec ID : A_AAC-2
    Duration : 1 h 44 min
    Bit rate : 128 kb/s
    Channel(s) : 2 channels
    Channel layout : L R
    Sampling rate : 48.0 kHz
    Frame rate : 46.875 FPS (1024 SPF)
    Compression mode : Lossy
    Delay relative to video : -42 ms
    Stream size : 95.0 MiB (3%)
    Title : thai master
    Language : Thai
    Default : No
    Forced : No

    Text #1
    ID : 4
    Format : PGS
    Muxing mode : zlib
    Codec ID : S_HDMV/PGS
    Codec ID/Info : Picture based subtitle format used on BDs/HD-DVDs
    Duration : 1 h 43 min
    Bit rate : 33.0 kb/s
    Count of elements : 3582
    Stream size : 24.5 MiB (1%)
    Title : eng pgs
    Language : English
    Default : Yes
    Forced : No

    Text #2
    ID : 5
    Format : PGS
    Muxing mode : zlib
    Codec ID : S_HDMV/PGS
    Codec ID/Info : Picture based subtitle format used on BDs/HD-DVDs
    Duration : 1 h 42 min
    Bit rate : 16.6 kb/s
    Count of elements : 2038
    Stream size : 12.2 MiB (0%)
    Title : thai pgs
    Language : Thai
    Default : No
    Forced : No






    3.7 GB
    http://cornfile.com/30ezv9eobwea
    http://www.mekafile.com/dl.php?f=u37f20bUlpq5
    4.6 GB
    http://cornfile.com/ng113w6paet1
    http://www.mekafile.com/dl.php?f=k41646bUlqDa
    6.9 GB
    http://cornfile.com/xxmmt6jt5jrk
    http://www.mekafile.com/dl.php?f=EQba52bUlswt
    10.2 GB
    http://cornfile.com/tsov4bsmqzgk
    http://www.mekafile.com/dl.php?f=R08fbfbUm4sV

  2. The Following 2 Users Say Thank You to Duckload.us For This Useful Post:

    bigbang06 (05-23-2019), noi54 (05-23-2019)

  3. #2
    Senior Member
    Join Date
    Jul 2012
    Posts
    6,004
    Thanks
    0
    Thanked 0 Times in 0 Posts
    ขอบคุณมากจ้า

+ Reply to Thread

Thread Information

Users Browsing this Thread

There are currently 1 users browsing this thread. (0 members and 1 guests)

     

Posting Permissions

  • You may not post new threads
  • You may not post replies
  • You may not post attachments
  • You may not edit your posts