+ Reply to Thread
Results 1 to 4 of 4
  1. #1
    Administrators Duckload.us's Avatar
    Join Date
    Dec 2010
    Posts
    106,080
    Thanks
    9
    Thanked 110,012 Times in 51,410 Posts

    Question [ฝรั่ง]-*** US 2019 - หลอน ลวง เรา ***-WEB-DL.H.264.1080p. [Modified]-[พากย์ไทยโรง]







    Us



    Rating: 7.3/10 Year: 2019 Genres: Horror / Thriller Runtime: 116 min Language: English Director: Jordan Peele Writers: Jordan Peele Cast: Lupita Nyong'o / Winston Duke / Elisabeth Mossโ€ฆ Plot:

    In order to get away from their busy lives, the Wilson family takes a vacation to Santa Cruz, California with the plan of spending time with their friends, the Tyler family. On a day at the beach, their young son Jason almost wanders off, causing his mother Adelaide to become protective of her family. That night, four mysterious people break into Adelaide's childhood home where they're staying. The family is shocked to find out that the intruders look like them, only with grotesque appearances. Written by jesusblack-30225


    US จะเป็นเรื่องราวในโลกปีปัจจุบัน เป็นเรื่องราวของ Adelaide และ Gabe Wilson (รับบทโดย Lupita Nyong’o และ Winston Duke สองนักแสดงจาก Black Panther กลับมาร่วมงานกันอีกครั้ง) โดยพวกเขาทั้งคู่ได้พาลูกๆทั้งสองกลับมายังชายหาดบ้า นเกิดในวัยเด็กของ Adelaide ในวันหยุดพักร้อน ณ ตอนเหนือของรัฐแคลิฟอร์เนีย

    หลังจากในตอนกลางวันที่พวกเขาได้สนุกกันบนชายหาดร่วม กับครอบครัว Tyler (นำแสดงโดย Elisabeth Moss และ Tim Heidecker) Adelaide ก็เริ่มรู้สึกหลอนกับความทรงจำวัยเด็ก และมันก็ยิ่งเพิ่มมากขึ้นเรื่อยๆจนกลายเป็นความหวาดร ะแวงว่าจะมีบางอย่างร้ายๆเกิดขึ้นกับครอบครัวของเธอ เมื่อตะวันตกดิน ฟ้ามืดลงในตอนค่ำ Wilson ก็ได้เห็นคน 4 คนยืนจับมือกันอยู่อย่างเงียบๆ บนถนนหน้าบ้านที่พวกเขาอาศัยอยู่.... และทั้ง 4 คนนั้นหน้าตาก็เหมือนกับพวกเขา!!


    Format : Matroska
    Format version : Version 4 / Version 2
    File size : 2.48 GiB
    Duration : 1 h 56 min
    Overall bit rate mode : Variable
    Overall bit rate : 3 044 kb/s
    Movie name : EVO
    Encoded date : UTC 2019-05-23 02:29:00
    Writing application : mkvmerge v33.1.0 ('Primrose') 64-bit
    Writing library : libebml v1.3.7 + libmatroska v1.5.0

    Video
    ID : 1
    Format : AVC
    Format/Info : Advanced Video Codec
    Format profile : [email protected]
    Format settings : CABAC / 1 Ref Frames
    Format settings, CABAC : Yes
    Format settings, ReFrames : 1 frame
    Format settings, GOP : M=1, N=25
    Codec ID : V_MPEG4/ISO/AVC
    Duration : 1 h 56 min
    Bit rate mode : Variable
    Bit rate : 2 344 kb/s
    Maximum bit rate : 2 000 kb/s
    Width : 1 920 pixels
    Height : 1 080 pixels
    Display aspect ratio : 16:9
    Frame rate mode : Constant
    Frame rate : 23.976 (24000/1001) FPS
    Color space : YUV
    Chroma subsampling : 4:2:0
    Bit depth : 8 bits
    Scan type : Progressive
    Bits/(Pixel*Frame) : 0.047
    Stream size : 1.91 GiB (77%)
    Default : Yes
    Forced : No

    Audio #1
    ID : 2
    Format : AAC
    Format/Info : Advanced Audio Codec
    Format profile : LC
    Codec ID : A_AAC-2
    Duration : 1 h 56 min
    Bit rate : 313 kb/s
    Channel(s) : 6 channels
    Channel positions : Front: L C R, Side: L R, LFE
    Sampling rate : 48.0 kHz
    Frame rate : 46.875 FPS (1024 SPF)
    Compression mode : Lossy
    Stream size : 261 MiB (10%)
    Title : เสียงไทย
    Language : Thai
    Default : Yes
    Forced : Yes

    Audio #2
    ID : 3
    Format : AC-3
    Format/Info : Audio Coding 3
    Codec ID : A_AC3
    Duration : 1 h 56 min
    Bit rate mode : Constant
    Bit rate : 384 kb/s
    Channel(s) : 2 channels
    Channel positions : Front: L R
    Sampling rate : 48.0 kHz
    Frame rate : 31.250 FPS (1536 SPF)
    Bit depth : 16 bits
    Compression mode : Lossy
    Stream size : 320 MiB (13%)
    Title : เสียงอังกฤษ
    Language : English
    Service kind : Complete Main
    Default : No
    Forced : No

    Menu
    00:00:00.000 : en:1
    00:06:06.157 : en:2
    00:11:26.352 : en:3
    00:17:13.115 : en:4
    00:23:25.654 : en:5
    00:29:32.520 : en:6
    00:36:08.791 : en:7
    00:41:08.757 : en:8
    00:48:09.302 : en:9
    00:55:44.256 : en:10
    01:03:01.318 : en:11
    01:07:50.357 : en:12
    01:14:26.211 : en:13
    01:20:13.016 : en:14
    01:25:26.954 : en:15
    01:29:45.045 : en:16
    01:35:22.674 : en:17
    01:40:55.548 : en:18
    01:47:37.908 : en:19
    01:52:15.393 : en:20



    Download: cornfile
    http://cornfile.com/dbkoedkivsad
    Download: mekafile
    http://www.mekafile.com/dl.php?f=h09b14bUmky5

  2. The Following 3 Users Say Thank You to Duckload.us For This Useful Post:

    PUNKROCK (05-26-2019), smakha (05-24-2019), Wesker_TOT (05-24-2019)

  3. #2
    Senior Member
    Join Date
    Dec 2013
    Posts
    1,762
    Thanks
    3,714
    Thanked 0 Times in 0 Posts
    ว๊าว...

    ขอบคุณครับ...

  4. #3
    Senior Member
    Join Date
    Jun 2014
    Posts
    866
    Thanks
    0
    Thanked 0 Times in 0 Posts
    ขอบคุณครับ

  5. #4
    Senior Member PUNKROCK's Avatar
    Join Date
    Jul 2011
    Posts
    1,257
    Thanks
    1,144
    Thanked 0 Times in 0 Posts
    . สุขกายเเละสุขใจ เด้อ ครับพี่
    PUNKROCK NEVERDIE

+ Reply to Thread

Thread Information

Users Browsing this Thread

There are currently 1 users browsing this thread. (0 members and 1 guests)

     

Posting Permissions

  • You may not post new threads
  • You may not post replies
  • You may not post attachments
  • You may not edit your posts