+ Reply to Thread
Results 1 to 1 of 1
  1. #1
    Administrators Duckload.us's Avatar
    Join Date
    Dec 2010
    Posts
    103,694
    Thanks
    9
    Thanked 106,644 Times in 50,453 Posts

    Question [ฝรั่ง]-[* ใหม่ Netflix *] Rim of the World (2019) : ผ่าพิภพสุดขอบโลก [เสียงอังกฤษ 5.1] [บรรยายไทย + อังกฤษ และอื่นๆ] [ซับไทย Master From Netflix คมชัด]-WEB-DL.H.264.1080p. [Modified]-[Soundtrack บรรยายไทย]



    ผ่าพิภพสุดขอบโลก
    ผลงานจากผู้กำกับแม็คจี (นางฟ้าชาร์ลี, เดอะ เบบี้ซิตเตอร์) และแซ็ค สเตนต์ซผู้เขียนบท (ธอร์ เทพเจ้าสายฟ้า, X-เม็น รุ่น 1)

    เมื่อเอเลี่ยนบุกโลกระหว่างที่พวกเขาเข้าค่ายฤดูร้อน วัยรุ่นสี่คนที่แตกต่างกันแบบสุดขั้วต้องเผชิญหน้ากั บภารกิจสุดอันตรายเพื่อหาทางกอบกู้โลก

    Format : Matroska

    Format version : Version 4

    File size : 2.56 GiB

    Duration : 1 h 39 min

    Overall bit rate mode : Variable

    Overall bit rate : 3 691 kb/s

    Encoded date : UTC 2019-05-24 07:58:50

    Writing application : mkvmerge v34.0.0 ('Sight and Seen') 64-bit

    Writing library : libebml v1.3.7 + libmatroska v1.5.0



    Video

    ID : 1

    Format : AVC

    Format/Info : Advanced Video Codec

    Format profile : [email protected]

    Format settings : CABAC / 4 Ref Frames

    Format settings, CABAC : Yes

    Format settings, Reference frames : 4 frames

    Codec ID : V_MPEG4/ISO/AVC

    Duration : 1 h 39 min

    Bit rate mode : Variable

    Bit rate : 3 045 kb/s

    Maximum bit rate : 20.0 Mb/s

    Width : 1 920 pixels

    Height : 1 080 pixels

    Display aspect ratio : 16:9

    Frame rate mode : Constant

    Frame rate : 23.976 (24000/1001) FPS

    Color space : YUV

    Chroma subsampling : 4:2:0

    Bit depth : 8 bits

    Scan type : Progressive

    Bits/(Pixel*Frame) : 0.061

    Stream size : 2.11 GiB (82%)

    Writing library : x264 core 148 r2715 7e75228

    Encoding settings : cabac=1 / ref=4 / deblock=1:0:0 / analyse=0x3:0x111 / me=umh / subme=10 / psy=1 / psy_rd=1.00:0.00 / mixed_ref=1 / me_range=120 / chroma_me=1 / trellis=2 / 8x8dct=1 / cqm=0 / deadzone=21,11 / fast_pskip=1 / chroma_qp_offset=-2 / threads=8 / lookahead_threads=2 / sliced_threads=0 / nr=0 / decimate=1 / interlaced=0 / bluray_compat=0 / stitchable=1 / constrained_intra=0 / bframes=16 / b_pyramid=2 / b_adapt=2 / b_bias=0 / direct=3 / weightb=1 / open_gop=0 / weightp=2 / keyint=240 / keyint_min=121 / scenecut=0 / intra_refresh=0 / rc_lookahead=240 / rc=crf / mbtree=1 / crf=20.0 / qcomp=0.50 / qpmin=6 / qpmax=51 / qpstep=4 / vbv_maxrate=20000 / vbv_bufsize=25000 / crf_max=0.0 / nal_hrd=vbr / filler=0 / ip_ratio=1.40 / aq=1:0.80

    Default : Yes

    Forced : No



    Audio

    ID : 2

    Format : E-AC-3

    Format/Info : Enhanced AC-3

    Commercial name : Dolby Digital Plus

    Codec ID : A_EAC3

    Duration : 1 h 39 min

    Bit rate mode : Constant

    Bit rate : 640 kb/s

    Channel(s) : 6 channels

    Channel layout : L R C LFE Ls Rs

    Sampling rate : 48.0 kHz

    Frame rate : 31.250 FPS (1536 SPF)

    Compression mode : Lossy

    Stream size : 454 MiB (17%)

    Title : English

    Language : English

    Service kind : Complete Main

    Default : Yes

    Forced : No



    Text #1

    ID : 3

    Format : UTF-8

    Codec ID : S_TEXT/UTF8

    Codec ID/Info : UTF-8 Plain Text

    Duration : 1 h 4 min

    Bit rate : 0 b/s

    Count of elements : 7

    Stream size : 239 Bytes (0%)

    Title : English [Forced]

    Language : English

    Default : Yes

    Forced : Yes



    Text #2

    ID : 4

    Format : UTF-8

    Codec ID : S_TEXT/UTF8

    Codec ID/Info : UTF-8 Plain Text

    Duration : 1 h 31 min

    Bit rate : 77 b/s

    Count of elements : 1741

    Stream size : 52.1 KiB (0%)

    Title : English [SDH]

    Language : English

    Default : No

    Forced : No



    Text #37

    ID : 39

    Format : UTF-8

    Codec ID : S_TEXT/UTF8

    Codec ID/Info : UTF-8 Plain Text

    Duration : 1 h 38 min

    Bit rate : 150 b/s

    Count of elements : 1483

    Stream size : 108 KiB (0%)

    Title : Thai

    Language : Thai

    Default : No

    Forced : No

    ************************************************** ************************************************** ************************************

    Subtitle.......: English (English [Forced])
    Subtitle.......: English (English [SDH])
    Subtitle.......: Spanish (Castilian [Forced])
    Subtitle.......: Spanish (Castilian)
    Subtitle.......: Spanish (Spanish [Forced])
    Subtitle.......: Spanish (Spanish)
    Subtitle.......: French (French [Forced])
    Subtitle.......: French (French)
    Subtitle.......: German (German [Forced])
    Subtitle.......: German (German)
    Subtitle.......: Italian (Italian [Forced])
    Subtitle.......: Italian (Italian)
    Subtitle.......: Portuguese (Portuguese)
    Subtitle.......: Portuguese (Brazilian Portuguese [Forced])
    Subtitle.......: Portuguese (Brazilian Portuguese)
    Subtitle.......: Polish (Polish [Forced])
    Subtitle.......: Polish (Polish)
    Subtitle.......: Turkish (Turkish [Forced])
    Subtitle.......: Turkish (Turkish)
    Subtitle.......: Swedish (Swedish)
    Subtitle.......: Danish (Danish)
    Subtitle.......: Finnish (Finnish)
    Subtitle.......: Dutch (Dutch)
    Subtitle.......: Norwegian (Norwegian)
    Subtitle.......: Russian (Russian [Forced])
    Subtitle.......: Russian (Russian)
    Subtitle.......: Hungarian (Hungarian)
    Subtitle.......: Greek (Greek)
    Subtitle.......: Hebrew (Hebrew)
    Subtitle.......: Arabic (Arabic)
    Subtitle.......: Romanian (Romanian)
    Subtitle.......: Czech (Czech)
    Subtitle.......: Hindi (Hindi [Forced])
    Subtitle.......: Hindi (Hindi)
    Subtitle.......: Indonesian (Indonesian)
    Subtitle.......: Vietnamese (Vietnamese)
    Subtitle.......: Thai (Thai)
    Subtitle.......: Korean (Korean)
    Subtitle.......: Chinese (Chinese (Simplified))
    Subtitle.......: Chinese (Chinese (Traditional))
    Subtitle.......: Japanese (Japanese [Forced])
    Subtitle.......: Japanese (Japanese)















    Download: cornfile
    http://cornfile.com/i94p4ez6hrac
    Download: mekafile
    http://www.mekafile.com/dl.php?f=F99e4fbUoNJa

  2. The Following User Says Thank You to Duckload.us For This Useful Post:

    Tellmon (05-24-2019)

+ Reply to Thread

Thread Information

Users Browsing this Thread

There are currently 1 users browsing this thread. (0 members and 1 guests)

     

Posting Permissions

  • You may not post new threads
  • You may not post replies
  • You may not post attachments
  • You may not edit your posts