+ Reply to Thread
Results 1 to 2 of 2
  1. #1
    Administrators Duckload.us's Avatar
    Join Date
    Dec 2010
    Posts
    106,080
    Thanks
    9
    Thanked 110,012 Times in 51,410 Posts

    Question (หนังฟิลิปปินส์)**Mystified (2019)**[SoundTrack AC-3 : บรรยายไทยคมชัด +บรรยายอังกฤษซับฝัง]-WEB-DL.H.264.1080p. [Modified]-[Soundtrack บรรยายไทย]




    Mystified



    Rating: 6.8/10 Year: 2019 Genres: Adventure / Fantasy Runtime: 86 min Language: Filipino / English Director: Mark A. Reyes Writers: n/A Cast: Iza Calzado / Sunshine Cruz / Sunshine Dizonโ€ฆ Plot:

    n/A

    เหล่าแม่มดสาวทั้งสี่ อัลเทีย, แคทาลินา, เฮเลนา และ อเดลา ต้องใช้ชีวิตแบบปกปิดตัวตนบนโลกมนุษย์ เพื่อจัดการกับกองกำลังปีศาจที่หลงเหลืออยู่ เหล่าจตุรเวทย์ต้องใช้พลังอย่างระมัดระวังเพื่อไม่ให ้ความลับถูกเปิดเผย ในขณะเดียวกัน ดาวหางที่จองจำจอมอสูรร้ายก็กำลังจะผ่านเข้ามาใกล้โล กอีกครั้งในรอบ 300 ปี ...


    **Mystified (2019)**


    SS


    เหล่าแม่มดสาวทั้งสี่ อัลเทีย, แคทาลินา, เฮเลนา และ อเดลา ต้องใช้ชีวิตแบบปกปิดตัวตนบนโลกมนุษย์ เพื่อจัดการกับกองกำลังปีศาจที่หลงเหลืออยู่ เหล่าจตุรเวทย์ต้องใช้พลังอย่างระมัดระวังเพื่อไม่ให ้ความลับถูกเปิดเผย ในขณะเดียวกัน ดาวหางที่จองจำจอมอสูรร้ายก็กำลังจะผ่านเข้ามาใกล้โล กอีกครั้งในรอบ 300 ปี ...

    จับภาพตัวหนัง


    MediaInfo :
    Video
    ID : 1
    Format : AVC
    Format/Info : Advanced Video Codec
    Format profile : High [email protected]
    Format settings : CABAC / 4 Ref Frames
    Format settings, CABAC : Yes
    Format settings, Reference frames : 4 frames
    Codec ID : V_MPEG4/ISO/AVC
    Duration : 1 h 26 min
    Bit rate : 3 000 kb/s
    Width : 1 920 pixels
    Height : 1 080 pixels
    Display aspect ratio : 16:9
    Frame rate mode : Variable
    Frame rate : 21.705 FPS
    Color space : YUV
    Chroma subsampling : 4:2:0
    Bit depth : 10 bits
    Scan type : Progressive
    Bits/(Pixel*Frame) : 0.067
    Stream size : 1.79 GiB (87%)
    Title : Cinemaghar
    Writing library : x264 core 157 r2935 545de2f
    Encoding settings : cabac=1 / ref=4 / deblock=1:0:0 / analyse=0x3:0x113 / me=hex / subme=8 / psy=1 / psy_rd=1.00:0.00 / mixed_ref=1 / me_range=16 / chroma_me=1 / trellis=2 / 8x8dct=1 / cqm=0 / deadzone=21,11 / fast_pskip=1 / chroma_qp_offset=-2 / threads=6 / lookahead_threads=1 / sliced_threads=0 / nr=0 / decimate=1 / interlaced=0 / bluray_compat=0 / constrained_intra=0 / bframes=3 / b_pyramid=2 / b_adapt=1 / b_bias=0 / direct=3 / weightb=1 / open_gop=0 / weightp=2 / keyint=220 / keyint_min=22 / scenecut=40 / intra_refresh=0 / rc_lookahead=50 / rc=abr / mbtree=1 / bitrate=3000 / ratetol=1.0 / qcomp=0.60 / qpmin=0 / qpmax=81 / qpstep=4 / vbv_maxrate=60000 / vbv_bufsize=75000 / nal_hrd=none / filler=0 / ip_ratio=1.40 / aq=1:1.00
    Default : Yes
    Forced : No
    Color range : Limited
    Color primaries : BT.709
    Transfer characteristics : BT.709
    Matrix coefficients : BT.709

    Audio
    ID : 2
    Format : AC-3
    Format/Info : Audio Coding 3
    Commercial name : Dolby Digital
    Codec ID : A_AC3
    Duration : 1 h 26 min
    Bit rate mode : Constant
    Bit rate : 384 kb/s
    Channel(s) : 2 channels
    Channel layout : L R
    Sampling rate : 48.0 kHz
    Frame rate : 31.250 FPS (1536 SPF)
    Bit depth : 16 bits
    Compression mode : Lossy
    Delay relative to video : -5 ms
    Stream size : 237 MiB (11%)
    Title : Cinemaghar
    Language : phi
    Service kind : Complete Main
    Default : Yes
    Forced : Yes
    Text #1
    ID : 3
    Format : VobSub
    Muxing mode : zlib
    Codec ID : S_VOBSUB
    Codec ID/Info : Picture based subtitle format used on DVDs
    Duration : 1 h 23 min
    Bit rate : 7 864 b/s
    Count of elements : 1095
    Stream size : 4.70 MiB (0%)
    Title : Tahoma
    Language : Thai
    Default : Yes
    Forced : No

    Text #2
    ID : 4
    Format : VobSub
    Muxing mode : zlib
    Codec ID : S_VOBSUB
    Codec ID/Info : Picture based subtitle format used on DVDs
    Duration : 1 h 23 min
    Bit rate : 8 575 b/s
    Count of elements : 1095
    Stream size : 5.12 MiB (0%)
    Title : DilleniaUPC
    Language : Thai
    Default : No
    Forced : No

    Text #3
    ID : 5
    Format : VobSub
    Muxing mode : zlib
    Codec ID : S_VOBSUB
    Codec ID/Info : Picture based subtitle format used on DVDs
    Duration : 1 h 23 min
    Bit rate : 8 859 b/s
    Count of elements : 1095
    Stream size : 5.29 MiB (0%)
    Title : AngsanaUPC
    Language : Thai
    Default : No
    Forced : No

    Text #4
    ID : 6
    Format : PGS
    Muxing mode : zlib
    Codec ID : S_HDMV/PGS
    Codec ID/Info : Picture based subtitle format used on BDs/HD-DVDs
    Duration : 1 h 23 min
    Bit rate : 35.1 kb/s
    Count of elements : 2190
    Stream size : 21.0 MiB (1%)
    Title : Tahoma
    Language : Thai
    Default : No
    Forced : No

    Text #5
    ID : 7
    Format : PGS
    Muxing mode : zlib
    Codec ID : S_HDMV/PGS
    Codec ID/Info : Picture based subtitle format used on BDs/HD-DVDs
    Duration : 1 h 23 min
    Bit rate : 36.4 kb/s
    Count of elements : 2190
    Stream size : 21.7 MiB (1%)
    Title : DilleniaUPC
    Language : Thai
    Default : No
    Forced : No

    Text #6
    ID : 8
    Format : PGS
    Muxing mode : zlib
    Codec ID : S_HDMV/PGS
    Codec ID/Info : Picture based subtitle format used on BDs/HD-DVDs
    Duration : 1 h 23 min
    Bit rate : 39.7 kb/s
    Count of elements : 2190
    Stream size : 23.7 MiB (1%)
    Title : AngsanaUPC
    Language : Thai
    Default : No
    Forced : No








    Download: cornfile
    http://cornfile.com/6q4e3hxgalkd
    Download: mekafile
    http://www.mekafile.com/dl.php?f=02fa1fbUoJmx

  2. #2
    Senior Member
    Join Date
    Jun 2014
    Posts
    866
    Thanks
    0
    Thanked 0 Times in 0 Posts
    ขอบคุณครับ

+ Reply to Thread

Thread Information

Users Browsing this Thread

There are currently 1 users browsing this thread. (0 members and 1 guests)

     

Posting Permissions

  • You may not post new threads
  • You may not post replies
  • You may not post attachments
  • You may not edit your posts