+ Reply to Thread
Results 1 to 2 of 2
  1. #1
    Administrators Duckload.us's Avatar
    Join Date
    Dec 2010
    Posts
    107,095
    Thanks
    9
    Thanked 111,553 Times in 51,849 Posts

    Question [ฝรั่ง] Tomb Raider (2018) [MKV HEVC 4K HDR10 Dolby Vision] [English : Dolby Atmos / Dolby TrueHD 7.1 Ch / HE-AAC 7.1 Ch] [พากย์ไทย : HE-AAC 5.1 Ch] [บรรยาย PGS : English / ไทย]



    Tomb Raider (2018) [MKV HEVC 4K HDR10 Dolby Vision]
    [English : Dolby Atmos / Dolby TrueHD 7.1 Ch / HE-AAC 7.1 Ch] [พากย์ไทย : HE-AAC 5.1 Ch] [บรรยาย PGS : English / ไทย]

    หลังจากที่พ่อของเธอหายตัวไป ลาร่าก็หาเลี้ยงชีพด้วยการเป็นเด็กส่งเอกสาร แต่เมื่อเธอได้รับแจ้งว่าถ้าไม่กลับไปรับช่วงดูแลมรด กที่พ่อของเธอ คือลอร์ดริชาร์ด ครอฟท์ ทิ้งไว้ให้
    ทรัพย์สินทั้งหมดจะถูกขายทอดตลาด ลาร่าจึงต้องกลับไปที่บ้านและได้พบบันทึกของพ่อที่พู ดถึงการค้นหาฮิมิโกะ ผู้ปกครองเกาะลึกลับชื่อ ยามาไต
    ที่อ้างว่าเป็นผู้ครอบครองพลังแห่งชีวิตและความตาย พร้อมทั้งบอกให้เธอทำลายเอกสารการค้นคว้าทั้งหมด แต่ลาร่าตัดสินใจที่จะออกไปค้นหาความจริงในเรื่องนี้ !!!

    Code:
    General
    Complete name                  : Tomb Raider (2018) [HEVC 4K HDR10 DV] [EN TrueHD 7.1 Atmos HE-AAC 7.1 TH HE-AAC 5.1].mkv
    Format                         : Matroska
    Format version                 : Version 4
    File size                      : 11.0 GiB
    Duration                       : 1 h 57 min
    Overall bit rate mode          : Variable
    Overall bit rate               : 13.3 Mb/s
    Movie name                     : Tomb Raider (2018) [MKV HEVC 4K HDR10 Dolby Vision] [EN TrueHD 7.1 Atmos / HE-AAC 7.1] [TH HE-AAC 5.1]
    Encoded date                   : UTC 2019-05-22 05:07:04
    Writing application            : mkvmerge v34.0.0 ('Sight and Seen') 64-bit
    Writing library                : libebml v1.3.7 + libmatroska v1.5.0
    
    Video #1
    ID                             : 1
    Format                         : HEVC
    Format/Info                    : High Efficiency Video Coding
    Commercial name                : HDR10
    Format profile                 : Main [email protected]@High
    Codec ID                       : V_MPEGH/ISO/HEVC
    Duration                       : 1 h 57 min
    Bit rate                       : 9 637 kb/s
    Width                          : 3 840 pixels
    Height                         : 2 160 pixels
    Display aspect ratio           : 16:9
    Frame rate mode                : Constant
    Frame rate                     : 23.976 (24000/1001) FPS
    Color space                    : YUV
    Chroma subsampling             : 4:2:0 (Type 2)
    Bit depth                      : 10 bits
    Bits/(Pixel*Frame)             : 0.048
    Stream size                    : 7.93 GiB (72%)
    Default                        : Yes
    Forced                         : No
    Color range                    : Limited
    Color primaries                : BT.2020
    Transfer characteristics       : PQ
    Matrix coefficients            : BT.2020 non-constant
    Mastering display color primar : BT.2020
    Mastering display luminance    : min: 0.0050 cd/m2, max: 4000 cd/m2
    Maximum Content Light Level    : 2971 cd/m2
    Maximum Frame-Average Light Le : 112 cd/m2
    
    Video #2
    ID                             : 2
    Format                         : HEVC
    Format/Info                    : High Efficiency Video Coding
    Commercial name                : HDR10
    Format profile                 : Main [email protected]@High
    Codec ID                       : V_MPEGH/ISO/HEVC
    Duration                       : 1 h 57 min
    Bit rate                       : 64.6 kb/s
    Width                          : 1 920 pixels
    Height                         : 1 080 pixels
    Display aspect ratio           : 16:9
    Frame rate mode                : Constant
    Frame rate                     : 23.976 (24000/1001) FPS
    Color space                    : YUV
    Chroma subsampling             : 4:2:0 (Type 2)
    Bit depth                      : 10 bits
    Bits/(Pixel*Frame)             : 0.001
    Stream size                    : 54.5 MiB (0%)
    Default                        : No
    Forced                         : Yes
    Color range                    : Limited
    Color primaries                : BT.2020
    Transfer characteristics       : PQ
    Matrix coefficients            : BT.2020 non-constant
    Mastering display color primar : BT.2020
    Mastering display luminance    : min: 0.0050 cd/m2, max: 4000 cd/m2
    
    Audio #1
    ID                             : 3
    Format                         : MLP FBA 16-ch
    Format/Info                    : Meridian Lossless Packing FBA with 16-channel presentation
    Commercial name                : Dolby TrueHD with Dolby Atmos
    Codec ID                       : A_TRUEHD
    Duration                       : 1 h 57 min
    Bit rate mode                  : Variable
    Bit rate                       : 3 214 kb/s
    Maximum bit rate               : 5 520 kb/s
    Channel(s)                     : 8 channels
    Channel layout                 : L R C LFE Ls Rs Lb Rb
    Sampling rate                  : 48.0 kHz
    Frame rate                     : 1 200.000 FPS (40 SPF)
    Compression mode               : Lossless
    Stream size                    : 2.64 GiB (24%)
    Language                       : English
    Default                        : Yes
    Forced                         : No
    Number of dynamic objects      : 11
    Bed channel count              : 1 channel
    Bed channel configuration      : LFE
    
    Audio #2
    ID                             : 4
    Format                         : AAC LC SBR
    Format/Info                    : Advanced Audio Codec Low Complexity with Spectral Band Replication
    Commercial name                : HE-AAC
    Format settings                : Explicit
    Codec ID                       : A_AAC-2
    Duration                       : 1 h 57 min
    Bit rate                       : 192 kb/s
    Channel(s)                     : 8 channels
    Channel layout                 : C L R Ls Rs Lb Rb LFE
    Sampling rate                  : 48.0 kHz
    Frame rate                     : 23.438 FPS (2048 SPF)
    Compression mode               : Lossy
    Delay relative to video        : 36 ms
    Stream size                    : 163 MiB (1%)
    Language                       : English
    Default                        : No
    Forced                         : No
    
    Audio #3
    ID                             : 5
    Format                         : AAC LC SBR
    Format/Info                    : Advanced Audio Codec Low Complexity with Spectral Band Replication
    Commercial name                : HE-AAC
    Format settings                : Explicit
    Codec ID                       : A_AAC-2
    Duration                       : 1 h 57 min
    Bit rate                       : 144 kb/s
    Channel(s)                     : 6 channels
    Channel layout                 : C L R Ls Rs LFE
    Sampling rate                  : 48.0 kHz
    Frame rate                     : 23.438 FPS (2048 SPF)
    Compression mode               : Lossy
    Delay relative to video        : 36 ms
    Stream size                    : 123 MiB (1%)
    Language                       : Thai
    Default                        : No
    Forced                         : No
    
    Text #1
    ID                             : 6
    Format                         : PGS
    Muxing mode                    : zlib
    Codec ID                       : S_HDMV/PGS
    Codec ID/Info                  : Picture based subtitle format used on BDs/HD-DVDs
    Duration                       : 1 h 56 min
    Bit rate                       : 21.5 kb/s
    Count of elements              : 2244
    Stream size                    : 17.9 MiB (0%)
    Language                       : English
    Default                        : No
    Forced                         : No
    
    Text #2
    ID                             : 7
    Format                         : PGS
    Muxing mode                    : zlib
    Codec ID                       : S_HDMV/PGS
    Codec ID/Info                  : Picture based subtitle format used on BDs/HD-DVDs
    Duration                       : 1 h 56 min
    Bit rate                       : 16.8 kb/s
    Count of elements              : 1784
    Stream size                    : 14.0 MiB (0%)
    Language                       : Thai
    Default                        : No
    Forced                         : No
    
    Menu
    00:00:00.000                   : en:(01)00:00:00:000
    00:13:13.250                   : en:(02)00:13:13:250
    00:24:04.234                   : en:(03)00:24:04:234
    00:31:57.999                   : en:(04)00:31:57:999
    00:39:57.061                   : en:(05)00:39:57:061
    00:50:31.069                   : en:(06)00:50:31:069
    01:04:49.844                   : en:(07)01:04:49:844
    01:13:58.100                   : en:(08)01:13:58:100
    01:20:17.395                   : en:(09)01:20:17:395
    01:27:41.130                   : en:(10)01:27:41:130
    01:38:41.624                   : en:(11)01:38:41:624
    01:51:17.420                   : en:(12)01:51:17:420
    01:57:49.145                   : en:(13)01:57:49:145





    Download: cornfile
    http://cornfile.com/5xe0w25ubo1q
    Download: mekafile
    http://www.mekafile.com/dl.php?f=m7e842bUm6xR

  2. The Following User Says Thank You to Duckload.us For This Useful Post:

    Wesker_TOT (05-28-2019)

  3. #2
    Senior Member
    Join Date
    Dec 2013
    Posts
    1,802
    Thanks
    3,744
    Thanked 0 Times in 0 Posts
    ขอบคุณนะครับ...

+ Reply to Thread

Thread Information

Users Browsing this Thread

There are currently 1 users browsing this thread. (0 members and 1 guests)

     

Posting Permissions

  • You may not post new threads
  • You may not post replies
  • You may not post attachments
  • You may not edit your posts