+ Reply to Thread
Results 1 to 2 of 2
  1. #1
    Administrators Duckload.us's Avatar
    Join Date
    Dec 2010
    Posts
    106,244
    Thanks
    9
    Thanked 110,178 Times in 51,462 Posts

    Question [ฝรั่ง]-[**ใหม่ MINI HD 1080P**] • [Netflix] • Good Sam (2019) : ของขวัญจากคนใจดี [1080p.web.x264] • [เสียงอังกฤษ 5.1] • [บรรยายไทย + อังกฤษ + ซับไทย PGS คมชัด ]-WEB-DL.AC-3.1080p. [Modified]-[Soundtrack บรรยายไทย]



    นักข่าวช่างสงสัยได้พบรักระหว่างตามหาข้อมูลเกี่ยวกั บบุคคลปริศนาที่วางทิ้งถุง
    ซึ่งมีเงินเป็นฟ่อนอยู่ข้างในไว้ให้คนแปลกหน้าทั่วนิ วยอร์ก...!!!

    Format : Matroska
    Format version : Version 4
    File size : 3.23 GiB
    Duration : 1 h 29 min
    Overall bit rate mode : Variable
    Overall bit rate : 5 158 kb/s
    Movie name : [email protected]

    Video
    ID : 1
    Format : AVC
    Format/Info : Advanced Video Codec
    Format profile : [email protected]
    Format settings : CABAC / 3 Ref Frames
    Format settings, CABAC : Yes
    Format settings, RefFrames : 3 frames
    Codec ID : V_MPEG4/ISO/AVC
    Duration : 1 h 29 min
    Bit rate mode : Variable
    Bit rate : 4 220 kb/s
    Maximum bit rate : 6 330 kb/s
    Width : 1 920 pixels
    Height : 1 080 pixels
    Display aspect ratio : 16:9
    Frame rate mode : Constant
    Frame rate : 24.000 FPS
    Color space : YUV
    Chroma subsampling : 4:2:0
    Bit depth : 8 bits
    Scan type : Progressive
    Bits/(Pixel*Frame) : 0.085
    Stream size : 2.64 GiB (82%)
    Title : [email protected]
    Writing library : x264 core 148 r2715 7e75228
    Encoding settings : cabac=1 / ref=3 / deblock=1:0:0 / analyse=0x1:0x111 / me=umh / subme=10 / psy=1 / psy_rd=1.00:0.00 / mixed_ref=1 / me_range=24 / chroma_me=1 / trellis=2 / 8x8dct=0 / cqm=0 / deadzone=21,11 / fast_pskip=1 / chroma_qp_offset=-2 / threads=8 / lookahead_threads=1 / sliced_threads=0 / nr=0 / decimate=1 / interlaced=0 / bluray_compat=0 / stitchable=1 / constrained_intra=0 / bframes=2 / b_pyramid=0 / b_adapt=2 / b_bias=0 / direct=3 / weightb=1 / open_gop=0 / weightp=2 / keyint=48 / keyint_min=25 / scenecut=0 / intra_refresh=0 / rc_lookahead=48 / rc=2pass / mbtree=1 / bitrate=4220 / ratetol=1.0 / qcomp=0.50 / qpmin=6 / qpmax=51 / qpstep=4 / cplxblur=20.0 / qblur=0.5 / vbv_maxrate=6330 / vbv_bufsize=8440 / nal_hrd=vbr / filler=0 / ip_ratio=1.40 / aq=1:1.00
    Default : Yes
    Forced : No

    Audio
    ID : 2
    Format : E-AC-3 JOC
    Format/Info : Enhanced AC-3 with Joint Object Coding
    Commercial name : Dolby Digital Plus with Dolby Atmos
    Codec ID : A_EAC3
    Duration : 1 h 29 min
    Bit rate mode : Constant
    Bit rate : 768 kb/s
    Channel(s) : 6 channels
    Channel layout : L R C LFE Ls Rs
    Sampling rate : 48.0 kHz
    Frame rate : 31.250 FPS (1536 SPF)
    Compression mode : Lossy
    Stream size : 493 MiB (15%)
    Title : English 5.1
    Language : English
    Service kind : Complete Main
    Default : Yes
    Forced : No
    Complexity index : 16
    Number of dynamic objects : 15
    Bed channel count : 1 channel
    Bed channel configuration : LFE

    Text #1
    ID : 3
    Format : UTF-8
    Codec ID : S_TEXT/UTF8
    Codec ID/Info : UTF-8 Plain Text
    Duration : 1 h 27 min
    Bit rate : 105 b/s
    Count of elements : 1845
    Stream size : 67.6 KiB (0%)
    Title : English
    Language : English
    Default : No
    Forced : No

    Text #2
    ID : 4
    Format : VobSub
    Muxing mode : zlib
    Codec ID : S_VOBSUB
    Codec ID/Info : Picture based subtitle format used on DVDs
    Duration : 1 h 25 min
    Bit rate : 3 878 b/s
    Count of elements : 1663
    Stream size : 2.36 MiB (0%)
    Title : Thai 480P
    Language : Thai
    Default : Yes
    Forced : No

    Text #3
    ID : 5
    Format : VobSub
    Muxing mode : zlib
    Codec ID : S_VOBSUB
    Codec ID/Info : Picture based subtitle format used on DVDs
    Duration : 1 h 25 min
    Bit rate : 6 911 b/s
    Count of elements : 1663
    Stream size : 4.20 MiB (0%)
    Title : Thai 720P
    Language : Thai
    Default : No
    Forced : No

    Text #4
    ID : 6
    Format : VobSub
    Muxing mode : zlib
    Codec ID : S_VOBSUB
    Codec ID/Info : Picture based subtitle format used on DVDs
    Duration : 1 h 25 min
    Bit rate : 11.2 kb/s
    Count of elements : 1663
    Stream size : 6.84 MiB (0%)
    Title : Thai 1080P
    Language : Thai
    Default : No
    Forced : No

    Text #5
    ID : 7
    Format : VobSub
    Muxing mode : zlib
    Codec ID : S_VOBSUB
    Codec ID/Info : Picture based subtitle format used on DVDs
    Duration : 1 h 25 min
    Bit rate : 12.2 kb/s
    Count of elements : 1663
    Stream size : 7.40 MiB (0%)
    Title : Thai 1080P BIG
    Language : Thai
    Default : No
    Forced : No

    Text #6
    ID : 8
    Format : VobSub
    Muxing mode : zlib
    Codec ID : S_VOBSUB
    Codec ID/Info : Picture based subtitle format used on DVDs
    Duration : 1 h 25 min
    Bit rate : 11.2 kb/s
    Count of elements : 1663
    Stream size : 6.84 MiB (0%)
    Title : Thai 1080P OUT
    Language : Thai
    Default : No
    Forced : No

    Text #7
    ID : 9
    Format : VobSub
    Muxing mode : zlib
    Codec ID : S_VOBSUB
    Codec ID/Info : Picture based subtitle format used on DVDs
    Duration : 1 h 25 min
    Bit rate : 12.2 kb/s
    Count of elements : 1663
    Stream size : 7.40 MiB (0%)
    Title : Thai 1080P BIG [OUT]
    Language : Thai
    Default : No
    Forced : No

    Text #8
    ID : 10
    Format : VobSub
    Muxing mode : zlib
    Codec ID : S_VOBSUB
    Codec ID/Info : Picture based subtitle format used on DVDs
    Duration : 1 h 25 min
    Bit rate : 11.3 kb/s
    Count of elements : 1663
    Stream size : 6.86 MiB (0%)
    Title : Thai 1080P Yellow
    Language : Thai
    Default : No
    Forced : No

    Text #9
    ID : 11
    Format : PGS
    Muxing mode : zlib
    Codec ID : S_HDMV/PGS
    Codec ID/Info : Picture based subtitle format used on BDs/HD-DVDs
    Duration : 1 h 25 min
    Bit rate : 38.1 kb/s
    Count of elements : 3326
    Stream size : 23.2 MiB (1%)
    Title : Thai PGS
    Language : Thai
    Default : No
    Forced : No

    Text #10
    ID : 12
    Format : PGS
    Muxing mode : zlib
    Codec ID : S_HDMV/PGS
    Codec ID/Info : Picture based subtitle format used on BDs/HD-DVDs
    Duration : 1 h 25 min
    Bit rate : 41.1 kb/s
    Count of elements : 3326
    Stream size : 25.0 MiB (1%)
    Title : Thai PGS BIG
    Language : Thai
    Default : No
    Forced : No

    Text #11
    ID : 13
    Format : PGS
    Muxing mode : zlib
    Codec ID : S_HDMV/PGS
    Codec ID/Info : Picture based subtitle format used on BDs/HD-DVDs
    Duration : 1 h 25 min
    Bit rate : 38.3 kb/s
    Count of elements : 3326
    Stream size : 23.3 MiB (1%)
    Title : Thai PGS Yellow
    Language : Thai
    Default : No
    Forced : No


























    Download: cornfile
    http://cornfile.com/183g3ara0hcc
    Download: mekafile
    http://www.mekafile.com/dl.php?f=763ce9bUllAE

  2. The Following User Says Thank You to Duckload.us For This Useful Post:

    noi54 (06-01-2019)

  3. #2
    Senior Member
    Join Date
    Jun 2014
    Posts
    885
    Thanks
    0
    Thanked 0 Times in 0 Posts
    ขอบคุณครับ

+ Reply to Thread

Thread Information

Users Browsing this Thread

There are currently 1 users browsing this thread. (0 members and 1 guests)

     

Posting Permissions

  • You may not post new threads
  • You may not post replies
  • You may not post attachments
  • You may not edit your posts