+ Reply to Thread
Results 1 to 2 of 2
  1. #1
    Administrators Duckload.us's Avatar
    Join Date
    Dec 2010
    Posts
    106,080
    Thanks
    9
    Thanked 110,012 Times in 51,410 Posts

    Question [ฝรั่ง]-Five Feet Apart (2019) ขออีกฟุตให้หัวใจเราใกล้กัน -[Soundtrack บรรยายไทย(แปล)+อังกฤษ]





    Five Feet Apart



    Rating: 7.1/10 Year: 2019 Genres: Drama / Romance Runtime: 116 min Language: English Director: Justin Baldoni Writers: Mikki Daughtry / Tobias Iaconis Cast: Haley Lu Richardson / Cole Sprouse / Moises Ariasโ€ฆ Plot:

    n/A









    สเตลล่า (เฮลีย์ ลู ริชาร์ดสัน) และ วิล (โคล สเปราส์) หนุ่มสาววัยสิบเจ็ดที่ตกหลุมรักกัน พวกเขาจีบกันเหมือนวัยรุ่นทั่วไป แอบทำอะไรเมื่อพ้นสายตาผู้ใหญ่ แต่ความสัมพันธ์นี้เกิดขึ้นบนพื้นฐานที่ว่าพวกเขาเป็ นผู้ป่วยโรคซิสติก ไฟรโบรซิส ที่รักษาตัวอยู่ในโรงพยาบาลเดียวกัน โดยมีกฏสำคัญว่าพวกเขาห้ามเข้าใกล้กันกว่าห้าฟุตโดยเ ด็ดขาด เมื่อความผูกพันระหว่างวิลและสเตลล่าเหนียวแน่นขึ้น แต่รักครั้งนี้จะสมบูรณ์แบบได้อย่างไรในเมื่อทั้งสอง ไม่สามารถสัมผัสกันได้ วิลและสเตลล่าจึงขอใช้ทุกวินาทีรวบรวมความเข้มแข็งใน จิตใจของตัวเองเพื่อส่งผ่านความรักที่จะไม่มีวันยอมป ล่อยให้ระยะทาง “5 ฟุต” เป็นอุปสรรค





    Duration : 1 h 56 min
    Overall bit rate : 4 985 kb/s
    Encoded date : UTC 2019-05-24 08:49:26
    Writing application : mkvmerge v34.0.0 ('Sight and Seen') 64-bit
    Writing library : libebml v1.3.7 + libmatroska v1.5.0
    Cover : Yes
    Attachments : cover

    Video
    ID : 1
    Format : AVC
    Format/Info : Advanced Video Codec
    Format profile : [email protected]
    Format settings : CABAC / 5 Ref Frames
    Format settings, CABAC : Yes
    Format settings, Reference frames : 5 frames
    Codec ID : V_MPEG4/ISO/AVC
    Duration : 1 h 56 min
    Bit rate : 4 562 kb/s
    Width : 1 920 pixels
    Height : 792 pixels
    Display aspect ratio : 2.40:1
    Frame rate mode : Constant
    Frame rate : 23.976 (23976/1000) FPS
    Color space : YUV
    Chroma subsampling : 4:2:0
    Bit depth : 8 bits
    Scan type : Progressive
    Bits/(Pixel*Frame) : 0.125
    Stream size : 3.70 GiB (92%)
    Language : English
    Default : Yes
    Forced : No
    Color range : Limited
    Color primaries : BT.709
    Transfer characteristics : BT.709
    Matrix coefficients : BT.709

    Audio
    ID : 2
    Format : AC-3
    Format/Info : Audio Coding 3
    Commercial name : Dolby Digital
    Codec ID : A_AC3
    Duration : 1 h 56 min
    Bit rate mode : Constant
    Bit rate : 384 kb/s
    Channel(s) : 6 channels
    Channel layout : L R C LFE Ls Rs
    Sampling rate : 48.0 kHz
    Frame rate : 31.250 FPS (1536 SPF)
    Bit depth : 16 bits
    Compression mode : Lossy
    Delay relative to video : -42 ms
    Stream size : 319 MiB (8%)
    Language : English
    Service kind : Complete Main
    Default : Yes
    Forced : No

    Text #1
    ID : 3
    Format : VobSub
    Muxing mode : zlib
    Codec ID : S_VOBSUB
    Codec ID/Info : Picture based subtitle format used on DVDs
    Duration : 1 h 49 min
    Bit rate : 7 390 b/s
    Count of elements : 1599
    Stream size : 5.81 MiB (0%)
    Language : English
    Default : No
    Forced : No

    Text #2
    ID : 4
    Format : UTF-8
    Codec ID : S_TEXT/UTF8
    Codec ID/Info : UTF-8 Plain Text
    Duration : 1 h 49 min
    Bit rate : 48 b/s
    Count of elements : 1599
    Stream size : 39.2 KiB (0%)
    Language : English
    Default : No
    Forced : No

    Text #3
    ID : 5
    Format : PGS
    Muxing mode : zlib
    Codec ID : S_HDMV/PGS
    Codec ID/Info : Picture based subtitle format used on BDs/HD-DVDs
    Duration : 1 h 49 min
    Bit rate : 31.7 kb/s
    Count of elements : 3198
    Stream size : 24.9 MiB (1%)
    Language : English
    Default : No
    Forced : No

    Text #4
    ID : 6
    Format : VobSub
    Muxing mode : zlib
    Codec ID : S_VOBSUB
    Codec ID/Info : Picture based subtitle format used on DVDs
    Duration : 1 h 50 min
    Bit rate : 6 284 b/s
    Count of elements : 1347
    Stream size : 4.95 MiB (0%)
    Language : Thai
    Default : No
    Forced : No

    Text #5
    ID : 7
    Format : UTF-8
    Codec ID : S_TEXT/UTF8
    Codec ID/Info : UTF-8 Plain Text
    Duration : 1 h 50 min
    Bit rate : 98 b/s
    Count of elements : 1347
    Stream size : 79.4 KiB (0%)
    Language : Thai
    Default : No
    Forced : No

    Text #6
    ID : 8
    Format : PGS
    Muxing mode : zlib
    Codec ID : S_HDMV/PGS
    Codec ID/Info : Picture based subtitle format used on BDs/HD-DVDs
    Duration : 1 h 50 min
    Bit rate : 30.4 kb/s
    Count of elements : 2694
    Stream size : 23.9 MiB (1%)
    Language : Thai
    Default : Yes
    Forced : No





    Download: cornfile
    http://cornfile.com/sl1g0x2zem0w
    Download: mekafile
    http://www.mekafile.com/dl.php?f=ijf727bUoYru

  2. #2
    Senior Member
    Join Date
    Jun 2014
    Posts
    866
    Thanks
    0
    Thanked 0 Times in 0 Posts
    ขอบคุณครับ

+ Reply to Thread

Thread Information

Users Browsing this Thread

There are currently 1 users browsing this thread. (0 members and 1 guests)

     

Posting Permissions

  • You may not post new threads
  • You may not post replies
  • You may not post attachments
  • You may not edit your posts