+ Reply to Thread
Results 1 to 1 of 1
  1. #1
    Administrators Duckload.us's Avatar
    Join Date
    Dec 2010
    Posts
    106,075
    Thanks
    9
    Thanked 109,999 Times in 51,408 Posts

    Question [ฝรั่ง]-[* ใหม่ Netflix *] The Perfection (2018) มือหนึ่ง [* 1080p.NF.WEB-DL.DDP5.1.x264.AC3.SubTH *] [เสียงอังกฤษ 5.1] [บรรยายไทย + อังกฤษ] [ซับไทย Master From Netflix] [Soundtrack บรรยายไทย]



    มือหนึ่ง (The Perfection)

    มือหนึ่ง (The Perfection) เป็นภาพยนตร์กระแสดีที่สุดในเทศกาลภาพยนตร์ Fantastic Fest เมื่อปีที่แล้ว เต็มไปด้วยความสง่างาม ความน่ากลัวระทึกขวัญ และการหักมุมที่คาดไม่ถึง เมื่อชาร์ลอตต์ (อัลลิสัน วิลเลียมส์) อัจฉริยะทางดนตรีออกตามหาอลิซาเบธ (โลแกน บราวนิ่ง) นักเรียนดาวเด่นคนใหม่ในโรงเรียนเก่าของเธอ และการกลับมาพบกันส่งผลให้นักดนตรีทั้งสองตกอยู่ในเส ้นทางที่ชั่วร้ายและนำไปสู่ผลลัพธ์ที่น่าตกใจ
    มือหนึ่ง เป็นภาพยนตร์ที่เต็มไปด้วยความระทึกขวัญสั่นประสาทแล ะเล่ห์เหลี่ยมตลกร้าย กำกับโดยริชาร์ด เชพเพิร์ด (จาก THE MATADOR , DOM HEMINGWAY และ Girls ) และเขียนบทโดยเอริค ซี. คาร์เมโล, นิโคล ชไนเดอร์ และริชาร์ด เชพเพิร์ด ภาพยนตร์เรื่องนี้จะเปิดตัวทั่วโลกทาง Netflix ในวันศุกร์ที่ 24 พฤษภาคม 2019 นี้



    Video
    ID : 1
    Format : AVC
    Format/Info : Advanced Video Codec
    Format profile : [email protected]
    Format settings, CABAC : Yes
    Format settings, RefFrames : 3 frames
    Codec ID : V_MPEG4/ISO/AVC
    Duration : 1 h 30 min
    Bit rate mode : Variable
    Bit rate : 3 650 kb/s
    Maximum bit rate : 5 475 kb/s
    Width : 1 920 pixels
    Height : 1 080 pixels
    Display aspect ratio : 16:9
    Frame rate mode : Constant
    Frame rate : 23.976 (24000/1001) FPS
    Color space : YUV
    Chroma subsampling : 4:2:0
    Bit depth : 8 bits
    Scan type : Progressive
    Bits/(Pixel*Frame) : 0.073
    Stream size : 2.29 GiB (85%)
    Title : The.Perfection.2018.1080p.NF.WEB-DL.DD5.1.x264.AC3.SubTH_HeRMineZ
    Writing library : x264 core 148 r2715 7e75228
    Encoding settings : cabac=1 / ref=3 / deblock=1:0:0 / analyse=0x1:0x111 / me=umh / subme=10 / psy=1 / psy_rd=1.00:0.00 / mixed_ref=1 / me_range=24 / chroma_me=1 / trellis=2 / 8x8dct=0 / cqm=0 / deadzone=21,11 / fast_pskip=1 / chroma_qp_offset=-2 / threads=8 / lookahead_threads=1 / sliced_threads=0 / nr=0 / decimate=1 / interlaced=0 / bluray_compat=0 / stitchable=1 / constrained_intra=0 / bframes=2 / b_pyramid=0 / b_adapt=2 / b_bias=0 / direct=3 / weightb=1 / open_gop=0 / weightp=2 / keyint=48 / keyint_min=25 / scenecut=0 / intra_refresh=0 / rc_lookahead=48 / rc=2pass / mbtree=1 / bitrate=3650 / ratetol=1.0 / qcomp=0.50 / qpmin=6 / qpmax=51 / qpstep=4 / cplxblur=20.0 / qblur=0.5 / vbv_maxrate=5475 / vbv_bufsize=7300 / nal_hrd=vbr / filler=0 / ip_ratio=1.40 / aq=1:1.00
    Default : Yes
    Forced : No

    Audio
    ID : 2
    Format : AC-3
    Format/Info : Audio Coding 3
    Format settings, Endianness : Big
    Codec ID : A_AC3
    Duration : 1 h 30 min
    Bit rate mode : Constant
    Bit rate : 640 kb/s
    Channel(s) : 6 channels
    Channel positions : Front: L C R, Side: L R, LFE
    Sampling rate : 48.0 kHz
    Frame rate : 31.250 FPS (1536 SPF)
    Bit depth : 16 bits
    Compression mode : Lossy
    Stream size : 415 MiB (15%)
    Title : English 5.1 @640 Kbps
    Language : English
    Service kind : Complete Main
    Default : Yes
    Forced : No

    Text #1
    ID : 3
    Format : VobSub
    Muxing mode : zlib
    Codec ID : S_VOBSUB
    Codec ID/Info : Picture based subtitle format used on DVDs
    Duration : 1 h 29 min
    Bit rate : 12.4 kb/s
    Count of elements : 1032
    Stream size : 7.94 MiB (0%)
    Title : Thai 1080p From NETFLIX
    Language : Thai
    Default : Yes
    Forced : No

    Text #2
    ID : 4
    Format : PGS
    Muxing mode : zlib
    Codec ID : S_HDMV/PGS
    Codec ID/Info : Picture based subtitle format used on BDs/HD-DVDs
    Duration : 1 h 29 min
    Bit rate : 26.1 kb/s
    Count of elements : 2066
    Stream size : 16.7 MiB (1%)
    Title : Thai PGS From NETFLIX
    Language : Thai
    Default : No
    Forced : No

    Text #3
    ID : 5
    Format : UTF-8
    Codec ID : S_TEXT/UTF8
    Codec ID/Info : UTF-8 Plain Text
    Duration : 1 h 29 min
    Bit rate : 117 b/s
    Count of elements : 1033
    Stream size : 77.0 KiB (0%)
    Title : Thai [SDH]
    Language : Thai
    Default : No
    Forced : No

    Text #4
    ID : 6
    Format : UTF-8
    Codec ID : S_TEXT/UTF8
    Codec ID/Info : UTF-8 Plain Text
    Duration : 1 h 23 min
    Bit rate : 54 b/s
    Count of elements : 1206
    Stream size : 33.3 KiB (0%)
    Title : English [SDH]
    Language : English
    Default : No
    Forced : No












    6.0 GB
    Download: cornfile
    http://cornfile.com/tmmuyltlby2h
    Download: mekafile
    http://www.mekafile.com/dl.php?f=Uqa7f2bUqYOF

    2.71 GB
    Download: cornfile
    http://cornfile.com/xntyvo7un27j
    Download: mekafile
    http://www.mekafile.com/dl.php?f=LJe76ebUrBGf

  2. The Following User Says Thank You to Duckload.us For This Useful Post:

    Sherlock (05-26-2019)

+ Reply to Thread

Thread Information

Users Browsing this Thread

There are currently 1 users browsing this thread. (0 members and 1 guests)

     

Posting Permissions

  • You may not post new threads
  • You may not post replies
  • You may not post attachments
  • You may not edit your posts