จุดเริ่มต้นจากมิตรภาพเหลือเชื่อระหว่างไวกิ้งหนุ่มก ับมังกรไนท์ ฟิวรี ที่น่าสะพรึงกลัว ได้กลายเป็นไตรภาคอีพิคที่บอกเล่าเรื่องราวชีวิตของพ วกเขา ในตำนานบทใหม่นี้ ในที่สุด ฮิคคัพและทูธเลสก็จะได้ค้นพบโชคชะตาที่แท้จริงของพวก เขาเสียที นั่นคือการเป็นหัวหน้าหมู่บ้านในฐานะผู้นำของเหล่าเบ ิร์ค เคียงข้างแอสทริด และการเป็นมังกรผู้นำฝูง ในขณะที่ทั้งคู่กำลังจะขึ้นครองอำนาจ ภัยคุกคามที่ร้ายกาจที่สุดเท่าที่พวกเขาเคยเผชิญ รวมถึงการปรากฏตัวของไนท์ ฟิวรีเพศเมีย จะทดสอบสายสัมพันธ์มิตรภาพระหว่างพวกเขาอย่างที่ไม่เ คยปรากฏมาก่อน

MediaInfo :
Video
ID : 1
Format : HEVC
Format/Info : High Efficiency Video Coding
Format profile : Main [email protected]@High
HDR format : SMPTE ST 2086, HDR10 compatible
Codec ID : V_MPEGH/ISO/HEVC
Duration : 1 h 44 min
Bit rate : 31.3 Mb/s
Width : 3 840 pixels
Height : 1 634 pixels
Display aspect ratio : 2.35:1
Frame rate mode : Constant
Frame rate : 23.976 (24000/1001) FPS
Color space : YUV
Chroma subsampling : 4:2:0 (Type 2)
Bit depth : 10 bits
Bits/(Pixel*Frame) : 0.208
Stream size : 22.8 GiB (86%)
Writing library : x265 3.0+1-ed72af837053:[Linux][GCC 8.2.0][64 bit] 10bit
Encoding settings : cpuid=1176575 / frame-threads=5 / wpp / no-pmode / no-pme / no-psnr / no-ssim / log-level=2 / input-csp=1 / input-res=3840x1634 / interlace=0 / total-frames=0 / level-idc=51 / high-tier=1 / uhd-bd=0 / ref=4 / no-allow-non-conformance / repeat-headers / annexb / no-aud / no-hrd / info / hash=0 / no-temporal-layers / open-gop / min-keyint=23 / keyint=250 / gop-lookahead=0 / bframes=11 / b-adapt=2 / b-pyramid / bframe-bias=0 / rc-lookahead=25 / lookahead-slices=4 / scenecut=40 / radl=0 / no-splice / no-intra-refresh / ctu=64 / min-cu-size=8 / rect / no-amp / max-tu-size=32 / tu-inter-depth=1 / tu-intra-depth=1 / limit-tu=0 / rdoq-level=2 / dynamic-rd=0.00 / no-ssim-rd / signh-i-d-e / no-tskip / nr-intra=0 / nr-inter=0 / no-constrained-intra / strong-intra-smoothing / max-merge=3 / limit-refs=3 / limit-modes / me=2 / subme=6 / merange=57 / temporal-mvp / weightp / no-weightb / no-analyze-src-pics / deblock=-3:-3 / no-sao / no-sao-non-deblock / rd=4 / no-early-skip / no-rskip / no-fast-intra / no-tskip-fast / no-cu-lossless / no-b-intra / no-splitrd-skip / rdpenalty=0 / psy-rd=4.00 / psy-rdoq=10.00 / no-rd-refine / no-lossless / cbqpoffs=0 / crqpoffs=0 / rc=crf / crf=17.0 / qcomp=0.60 / qpstep=1 / stats-write=0 / stats-read=0 / vbv-maxrate=160000 / vbv-bufsize=160000 / vbv-init=0.9 / crf-max=0.0 / crf-min=0.0 / ipratio=1.25 / pbratio=1.20 / aq-mode=3 / aq-strength=0.80 / no-cutree / zone-count=0 / no-strict-cbr / qg-size=32 / rc-grain / qpmax=69 / qpmin=0 / const-vbv / sar=1 / overscan=0 / videoformat=5 / range=0 / colorprim=9 / transfer=16 / colormatrix=9 / chromaloc=1 / chromaloc-top=2 / chromaloc-bottom=2 / display-window=0 / master-display=G(13250,34500)B(7500,3000)R(34000,16000)WP (15635,16450)L(10000000,50) / max-cll=845,196 / min-luma=0 / max-luma=1023 / log2-max-poc-lsb=8 / vui-timing-info / vui-hrd-info / slices=1 / no-opt-qp-pps / no-opt-ref-list-length-pps / no-multi-pass-opt-rps / scenecut-bias=0.05 / no-opt-cu-delta-qp / no-aq-motion / hdr / hdr-opt / no-dhdr10-opt / no-idr-recovery-sei / analysis-reuse-level=5 / scale-factor=0 / refine-intra=0 / refine-inter=0 / refine-mv=0 / refine-ctu-distortion=0 / no-limit-sao / ctu-info=0 / no-lowpass-dct / refine-analysis-type=0 / copy-pic=1 / max-ausize-factor=1.0 / no-dynamic-refine / no-single-sei / no-hevc-aq / qp-adaptation-range=1.00
Default : Yes
Forced : No
Color range : Limited
Color primaries : BT.2020
Transfer characteristics : PQ
Matrix coefficients : BT.2020 non-constant
Mastering display color primaries : Display P3
Mastering display luminance : min: 0.0050 cd/m2, max: 1000 cd/m2
Maximum Content Light Level : 845 cd/m2
Maximum Frame-Average Light Level : 196 cd/m2

Audio #1
ID : 2
Format : MLP FBA 16-ch
Format/Info : Meridian Lossless Packing FBA with 16-channel presentation
Commercial name : Dolby TrueHD with Dolby Atmos
Codec ID : A_TRUEHD
Duration : 1 h 44 min
Bit rate mode : Variable
Bit rate : 3 312 kb/s
Maximum bit rate : 5 016 kb/s
Channel(s) : 8 channels
Channel layout : L R C LFE Ls Rs Lb Rb
Sampling rate : 48.0 kHz
Frame rate : 1 200.000 FPS (40 SPF)
Compression mode : Lossless
Stream size : 2.41 GiB (9%)
Language : English
Default : Yes
Forced : No
Number of dynamic objects : 11
Bed channel count : 1 channel
Bed channel configuration : LFE
Audio #2
ID : 3
Format : AC-3
Format/Info : Audio Coding 3
Commercial name : Dolby Digital
Codec ID : A_AC3
Duration : 1 h 44 min
Bit rate mode : Constant
Bit rate : 640 kb/s
Channel(s) : 6 channels
Channel layout : L R C LFE Ls Rs
Sampling rate : 48.0 kHz
Frame rate : 31.250 FPS (1536 SPF)
Bit depth : 16 bits
Compression mode : Lossy
Stream size : 477 MiB (2%)
Title : [MASTER BLURAY]
Language : Thai
Service kind : Complete Main
Default : No
Forced : No
Audio #3
ID : 4
Format : AC-3
Format/Info : Audio Coding 3
Commercial name : Dolby Digital
Codec ID : A_AC3
Duration : 1 h 44 min
Bit rate mode : Constant
Bit rate : 640 kb/s
Channel(s) : 6 channels
Channel layout : L R C LFE Ls Rs
Sampling rate : 48.0 kHz
Frame rate : 31.250 FPS (1536 SPF)
Bit depth : 16 bits
Compression mode : Lossy
Stream size : 477 MiB (2%)
Language : English
Service kind : Complete Main
Default : No
Forced : No

Audio #4
ID : 5
Format : AC-3
Format/Info : Audio Coding 3
Commercial name : Dolby Digital
Codec ID : A_AC3
Duration : 1 h 44 min
Bit rate mode : Constant
Bit rate : 192 kb/s
Channel(s) : 2 channels
Channel layout : L R
Sampling rate : 48.0 kHz
Frame rate : 31.250 FPS (1536 SPF)
Bit depth : 16 bits
Compression mode : Lossy
Stream size : 143 MiB (1%)
Title : Commentary with Dean DeBlois, Brad Lewis, and Simon Otto
Language : English
Service kind : Complete Main
Default : No
Forced : No
Text #1
ID : 6
Format : PGS
Muxing mode : zlib
Codec ID : S_HDMV/PGS
Codec ID/Info : Picture based subtitle format used on BDs/HD-DVDs
Duration : 1 h 42 min
Bit rate : 24.5 kb/s
Count of elements : 2040
Stream size : 18.0 MiB (0%)
Title : PGS
Language : Thai
Default : Yes
Forced : No

Text #2
ID : 7
Format : PGS
Muxing mode : zlib
Codec ID : S_HDMV/PGS
Codec ID/Info : Picture based subtitle format used on BDs/HD-DVDs
Duration : 1 h 42 min
Bit rate : 18.6 kb/s
Count of elements : 2040
Stream size : 13.7 MiB (0%)
Title : BluRay
Language : Thai
Default : No
Forced : No
Text #3
ID : 8
Format : UTF-8
Codec ID : S_TEXT/UTF8
Codec ID/Info : UTF-8 Plain Text
Duration : 1 h 32 min
Bit rate : 47 b/s
Count of elements : 1102
Stream size : 32.1 KiB (0%)
Title : English
Language : English
Default : No
Forced : No

Text #4
ID : 9
Format : UTF-8
Codec ID : S_TEXT/UTF8
Codec ID/Info : UTF-8 Plain Text
Duration : 1 h 32 min
Bit rate : 59 b/s
Count of elements : 1545
Stream size : 40.8 KiB (0%)
Title : English (SDH)
Language : English
Default : No
Forced : No

Text #5
ID : 10
Format : UTF-8
Codec ID : S_TEXT/UTF8
Codec ID/Info : UTF-8 Plain Text
Duration : 1 h 37 min
Bit rate : 119 b/s
Count of elements : 1619
Stream size : 85.3 KiB (0%)
Title : Commentary with Dean DeBlois, Brad Lewis, and Simon Otto
Language : English
Default : No
Forced : No

Text #6
ID : 11
Format : PGS
Muxing mode : zlib
Codec ID : S_HDMV/PGS
Codec ID/Info : Picture based subtitle format used on BDs/HD-DVDs
Duration : 1 h 32 min
Bit rate : 42.1 kb/s
Count of elements : 3090
Stream size : 28.0 MiB (0%)
Title : English (SDH)
Language : English
Default : No
Forced : No

Text #7
ID : 12
Format : PGS
Muxing mode : zlib
Codec ID : S_HDMV/PGS
Codec ID/Info : Picture based subtitle format used on BDs/HD-DVDs
Duration : 1 h 37 min
Bit rate : 69.7 kb/s
Count of elements : 3238
Stream size : 48.4 MiB (0%)
Title : Commentary with Dean DeBlois, Brad Lewis, and Simon Otto
Language : English
Default : No
Forced : No




Download: cornfile
http://cornfile.com/6s59g285tyje
Download: mekafile
http://www.mekafile.com/dl.php?f=7x92b6bUrov3