+ Reply to Thread
Results 1 to 2 of 2
  1. #1
    Administrators Duckload.us's Avatar
    Join Date
    Dec 2010
    Posts
    107,197
    Thanks
    9
    Thanked 111,609 Times in 51,867 Posts

    Question [ฝรั่ง] Avatar (2009) [HEVC 4K HDR10] [English : Flac 5.1 Ch / HE-AAC 5.1 Ch] [พากย์ไทย : HE-AAC 5.1 Ch] [บรรยาย PGS : English / ไทย]



    Avatar (2009) [HEVC 4K HDR10]
    [English : Flac 5.1 Ch / HE-AAC 5.1 Ch] [พากย์ไทย : HE-AAC 5.1 Ch] [บรรยาย PGS : English / ไทย]

    ...เจค อดีตนาวิกโยธินหนุ่มที่เป็นอัมพาตครึ่งตัว ที่ถูกเรียกมาปฎิบัติหน้าที่
    ในภารกิจพิเศษที่จะต้องเปลี่ยนร่างกายของเขา (อวตาร) ให้กลายเป็นชาวมนุษย์ต่างดาวที่อาศัยอยู่ที่ดาวแพนดอ ร่า
    โดยเจค ต้องเข้าไปสอดแนมในกลุ่มของนาวี เพื่อนำทางให้มนุษย์เข้าไปตักตวงแร่อันมีค่าของที่นั ่น
    แต่ยิ่งเจค ได้สัมผัสชีวิตบนดาว แพนดอร่า มากเท่าไหร่ เขาก็ยิ่งหลงใหลในความงามของที่นี่มากขึ้นเท่านั้น
    ท้ายที่สุดเขาต้องเลือกระหว่างภารกิจที่เขาได้รับมอบ หมายจากโลกและความรักความผูกพันที่มีต่อชาวนาวี
    ในสงครามที่มีอนาคตของโลกมนุษย์เป็นเดิมพัน!!!


    General
    Complete name : Avatar (2009) [HEVC 4K HDR10] [EN Flac 5.1 TH HE-AAC 5.1].mkv
    Format : Matroska
    Format version : Version 4
    File size : 17.1 GiB
    Duration : 2 h 58 min
    Overall bit rate mode : Variable
    Overall bit rate : 13.7 Mb/s
    Movie name : Avatar (2009) [HEVC 4K HDR10] [EN Flac 5.1 / HE-AAC 5.1] [TH HE-AAC 5.1]
    Encoded date : UTC 2019-05-23 16:35:48
    Writing application : mkvmerge v34.0.0 ('Sight and Seen') 64-bit
    Writing library : libebml v1.3.7 + libmatroska v1.5.0 / DVDFab

    Video
    ID : 1
    Format : HEVC
    Format/Info : High Efficiency Video Coding
    Format profile : Main [email protected]@Main
    Codec ID : V_MPEGH/ISO/HEVC
    Duration : 2 h 58 min
    Bit rate : 9 852 kb/s
    Width : 3 840 pixels
    Height : 2 160 pixels
    Display aspect ratio : 16:9
    Frame rate mode : Constant
    Frame rate : 23.976 (24000/1001) FPS
    Color space : YUV
    Chroma subsampling : 4:2:0
    Bit depth : 10 bits
    Bits/(Pixel*Frame) : 0.050
    Stream size : 12.3 GiB (72%)
    Writing library : DVDFab hevc_nvenc
    Language : English
    Default : Yes
    Forced : No
    Color range : Limited
    Color primaries : BT.2020
    Transfer characteristics : PQ
    Matrix coefficients : BT.2020 non-constant

    Audio #1
    ID : 2
    Format : FLAC
    Format/Info : Free Lossless Audio Codec
    Codec ID : A_FLAC
    Duration : 2 h 58 min
    Bit rate mode : Variable
    Bit rate : 3 578 kb/s
    Channel(s) : 6 channels
    Channel layout : L R C LFE Ls Rs
    Sampling rate : 48.0 kHz
    Frame rate : 11.719 FPS (4096 SPF)
    Bit depth : 24 bits
    Compression mode : Lossless
    Stream size : 4.45 GiB (26%)
    Writing library : libFLAC 1.2.1 (UTC 2007-09-17)
    Language : English
    Default : Yes
    Forced : No

    Audio #2
    ID : 3
    Format : AAC LC SBR
    Format/Info : Advanced Audio Codec Low Complexity with Spectral Band Replication
    Commercial name : HE-AAC
    Format settings : Explicit
    Codec ID : A_AAC-2
    Duration : 2 h 58 min
    Bit rate : 153 kb/s
    Channel(s) : 6 channels
    Channel layout : C L R Ls Rs LFE
    Sampling rate : 48.0 kHz
    Frame rate : 23.438 FPS (2048 SPF)
    Compression mode : Lossy
    Delay relative to video : 36 ms
    Stream size : 195 MiB (1%)
    Language : English
    Default : No
    Forced : No

    Audio #3
    ID : 4
    Format : AAC LC SBR
    Format/Info : Advanced Audio Codec Low Complexity with Spectral Band Replication
    Commercial name : HE-AAC
    Format settings : Explicit
    Codec ID : A_AAC-2
    Duration : 2 h 58 min
    Bit rate : 153 kb/s
    Channel(s) : 6 channels
    Channel layout : C L R Ls Rs LFE
    Sampling rate : 48.0 kHz
    Frame rate : 23.438 FPS (2048 SPF)
    Compression mode : Lossy
    Delay relative to video : 36 ms
    Stream size : 195 MiB (1%)
    Language : Thai
    Default : No
    Forced : No

    Text #1
    ID : 5
    Format : PGS
    Muxing mode : zlib
    Codec ID : S_HDMV/PGS
    Codec ID/Info : Picture based subtitle format used on BDs/HD-DVDs
    Duration : 2 h 57 min
    Bit rate : 12.8 kb/s
    Count of elements : 2986
    Stream size : 16.3 MiB (0%)
    Language : Thai
    Default : No
    Forced : Yes

    Text #2
    ID : 6
    Format : PGS
    Muxing mode : zlib
    Codec ID : S_HDMV/PGS
    Codec ID/Info : Picture based subtitle format used on BDs/HD-DVDs
    Duration : 2 h 57 min
    Bit rate : 24.7 kb/s
    Count of elements : 2801
    Stream size : 31.3 MiB (0%)
    Language : English
    Default : No
    Forced : No






    Download: cornfile
    http://cornfile.com/lkzwxuch2eqy
    Download: mekafile
    http://www.mekafile.com/dl.php?f=hn9d9bbRjNnN

  2. The Following User Says Thank You to Duckload.us For This Useful Post:

    Wesker_TOT (05-28-2019)

  3. #2
    Senior Member
    Join Date
    Dec 2013
    Posts
    1,803
    Thanks
    3,745
    Thanked 0 Times in 0 Posts
    Avatar.Extended.Collectors.Edition.2009.BDRip.1080 p.x264-ENTHD.Th-DTS-NPKdemo

    6.08GB

    ขอบคุณครับ...
    Last edited by Wesker_TOT; 05-28-2019 at 07:53 AM.

+ Reply to Thread

Thread Information

Users Browsing this Thread

There are currently 1 users browsing this thread. (0 members and 1 guests)

     

Posting Permissions

  • You may not post new threads
  • You may not post replies
  • You may not post attachments
  • You may not edit your posts