เสียงไทยโรง - บรรยาย(ซับ)ไทย PGS คมชัด

เรื่องราวเล่าถึง แซมซั่น ตำนานยอดวีรบุรุษของชาวยิวที่มีอยู่ในบันทึกพระคัมภี ร์ ซึ่งภายหลังจากที่โมเสสได้พาทาสชาวยิวหนีจากมาจากประ เทศอียิปต์ข้ามทะเลแดงมาสู่ดินแดนศักดิ์สิทธิ์ พวกเขาก็ต้องตกเป็นทาสอีกครั้งจาก ชาวฟิลิสเตีย เป็นเวลานานถึง 40 ปี ก่อนที่แซมซั่นจะถือกำเนิด…
แซมซั่นเป็นผู้ที่มีพละกำลังเหนือกว่ามนุษย์ธรรมดาทั ่วๆ ไป เพราะเขาถูกเลือกให้เป็น “ผู้ปลดปล่อยชาวยิว” จากการตกเป็นเบี้ยล่างของชาวฟิลิสเตีย ตามพระประสงค์ของพระผู้เป็นเจ้า ซึ่งเมื่อเติบโตขึ้น… เขาก็สามารถสังหารสิงโตขนาดใหญ่ลงได้อย่างน่าเหลือเช ื่อ และสังหารทหารชาวฟิลิสเตียได้มากกว่า 1000 คน แต่ความเป็นยอดคนของแซมซั่นกลับต้องพลาดท่าให้กับ “สตรีเพศ” ผู้เป็นภรรยานามว่า “เดลิลาห์” ซึ่งนำมาซึ่งจุดจบของตัวเขานั่นเอง...!!!


Code:
Format                                   : Matroska
Format version                           : Version 4
File size                                : 8.13 GiB
Duration                                 : 1 h 49 min
Overall bit rate                         : 10.6 Mb/s
Movie name                               : [email protected]

Video
ID                                       : 1
Format                                   : AVC
Format/Info                              : Advanced Video Codec
Format profile                           : [email protected]
Format settings                          : CABAC / 5 Ref Frames
Format settings, CABAC                   : Yes
Format settings, RefFrames               : 5 frames
Codec ID                                 : V_MPEG4/ISO/AVC
Duration                                 : 1 h 49 min
Bit rate                                 : 8 847 kb/s
Width                                    : 1 920 pixels
Height                                   : 816 pixels
Display aspect ratio                     : 2.35:1
Frame rate mode                          : Constant
Frame rate                               : 23.976 FPS
Color space                              : YUV
Chroma subsampling                       : 4:2:0
Bit depth                                : 8 bits
Scan type                                : Progressive
Bits/(Pixel*Frame)                       : 0.236
Stream size                              : 6.79 GiB (84%)
Title                                    : [email protected]
Writing library                          : x264 core 155 r2901 7d0ff22
Encoding settings                        : cabac=1 / ref=5 / deblock=1:0:0 / analyse=0x3:0x133 / me=umh / subme=7 / psy=1 / psy_rd=1.00:0.00 / mixed_ref=1 / me_range=16 / chroma_me=1 / trellis=1 / 8x8dct=1 / cqm=0 / deadzone=21,11 / fast_pskip=0 / chroma_qp_offset=-2 / threads=25 / lookahead_threads=4 / sliced_threads=0 / nr=0 / decimate=1 / interlaced=0 / bluray_compat=0 / constrained_intra=0 / bframes=3 / b_pyramid=2 / b_adapt=1 / b_bias=0 / direct=1 / weightb=1 / open_gop=0 / weightp=2 / keyint=250 / keyint_min=23 / scenecut=40 / intra_refresh=0 / rc_lookahead=40 / rc=2pass / mbtree=1 / bitrate=8847 / ratetol=1.0 / qcomp=0.60 / qpmin=0 / qpmax=69 / qpstep=4 / cplxblur=20.0 / qblur=0.5 / ip_ratio=1.40 / aq=1:1.00
Language                                 : English
Default                                  : Yes
Forced                                   : No

Audio #1
ID                                       : 2
Format                                   : DTS
Format/Info                              : Digital Theater Systems
Codec ID                                 : A_DTS
Duration                                 : 1 h 49 min
Bit rate mode                            : Constant
Bit rate                                 : 1 509 kb/s
Channel(s)                               : 6 channels
Channel layout                           : C L R Ls Rs LFE
Sampling rate                            : 48.0 kHz
Frame rate                               : 93.750 FPS (512 SPF)
Bit depth                                : 24 bits
Compression mode                         : Lossy
Stream size                              : 1.16 GiB (14%)
Title                                    : English DTS
Language                                 : English
Default                                  : Yes
Forced                                   : No

Audio #2
ID                                       : 3
Format                                   : AAC LC
Format/Info                              : Advanced Audio Codec Low Complexity
Codec ID                                 : A_AAC-2
Duration                                 : 1 h 49 min
Bit rate                                 : 128 kb/s
Channel(s)                               : 2 channels
Channel layout                           : L R
Sampling rate                            : 44.1 kHz
Frame rate                               : 43.066 FPS (1024 SPF)
Compression mode                         : Lossy
Stream size                              : 101 MiB (1%)
Title                                    : Thai
Default                                  : No
Forced                                   : No

Text #1
ID                                       : 4
Format                                   : VobSub
Muxing mode                              : zlib
Codec ID                                 : S_VOBSUB
Codec ID/Info                            : Picture based subtitle format used on DVDs
Duration                                 : 1 h 48 min
Bit rate                                 : 5 662 b/s
Count of elements                        : 1831
Stream size                              : 4.41 MiB (0%)
Title                                    : English
Language                                 : English
Default                                  : No
Forced                                   : No

Text #2
ID                                       : 5
Format                                   : VobSub
Muxing mode                              : zlib
Codec ID                                 : S_VOBSUB
Codec ID/Info                            : Picture based subtitle format used on DVDs
Duration                                 : 1 h 43 min
Bit rate                                 : 1 793 b/s
Count of elements                        : 1351
Stream size                              : 1.33 MiB (0%)
Title                                    : Thai 480P
Language                                 : Thai
Default                                  : No
Forced                                   : No

Text #3
ID                                       : 6
Format                                   : VobSub
Muxing mode                              : zlib
Codec ID                                 : S_VOBSUB
Codec ID/Info                            : Picture based subtitle format used on DVDs
Duration                                 : 1 h 43 min
Bit rate                                 : 3 174 b/s
Count of elements                        : 1351
Stream size                              : 2.36 MiB (0%)
Title                                    : Thai 720P
Language                                 : Thai
Default                                  : No
Forced                                   : No

Text #4
ID                                       : 7
Format                                   : VobSub
Muxing mode                              : zlib
Codec ID                                 : S_VOBSUB
Codec ID/Info                            : Picture based subtitle format used on DVDs
Duration                                 : 1 h 43 min
Bit rate                                 : 5 167 b/s
Count of elements                        : 1351
Stream size                              : 3.84 MiB (0%)
Title                                    : Thai 1080P
Language                                 : Thai
Default                                  : Yes
Forced                                   : No

Text #5
ID                                       : 8
Format                                   : VobSub
Muxing mode                              : zlib
Codec ID                                 : S_VOBSUB
Codec ID/Info                            : Picture based subtitle format used on DVDs
Duration                                 : 1 h 43 min
Bit rate                                 : 5 723 b/s
Count of elements                        : 1351
Stream size                              : 4.25 MiB (0%)
Title                                    : Thai 1080P BIG
Language                                 : Thai
Default                                  : No
Forced                                   : No

Text #6
ID                                       : 9
Format                                   : VobSub
Muxing mode                              : zlib
Codec ID                                 : S_VOBSUB
Codec ID/Info                            : Picture based subtitle format used on DVDs
Duration                                 : 1 h 43 min
Bit rate                                 : 5 167 b/s
Count of elements                        : 1351
Stream size                              : 3.84 MiB (0%)
Title                                    : Thai 1080P OUT
Language                                 : Thai
Default                                  : No
Forced                                   : No

Text #7
ID                                       : 10
Format                                   : VobSub
Muxing mode                              : zlib
Codec ID                                 : S_VOBSUB
Codec ID/Info                            : Picture based subtitle format used on DVDs
Duration                                 : 1 h 43 min
Bit rate                                 : 5 722 b/s
Count of elements                        : 1351
Stream size                              : 4.25 MiB (0%)
Title                                    : Thai 1080P BIG [OUT]
Language                                 : Thai
Default                                  : No
Forced                                   : No

Text #8
ID                                       : 11
Format                                   : VobSub
Muxing mode                              : zlib
Codec ID                                 : S_VOBSUB
Codec ID/Info                            : Picture based subtitle format used on DVDs
Duration                                 : 1 h 43 min
Bit rate                                 : 5 184 b/s
Count of elements                        : 1351
Stream size                              : 3.85 MiB (0%)
Title                                    : Thai 1080P Yellow
Language                                 : Thai
Default                                  : No
Forced                                   : No

Text #9
ID                                       : 12
Format                                   : PGS
Muxing mode                              : zlib
Codec ID                                 : S_HDMV/PGS
Codec ID/Info                            : Picture based subtitle format used on BDs/HD-DVDs
Duration                                 : 1 h 43 min
Bit rate                                 : 17.9 kb/s
Count of elements                        : 2710
Stream size                              : 13.3 MiB (0%)
Title                                    : Thai PGS
Language                                 : Thai
Default                                  : No
Forced                                   : No

Text #10
ID                                       : 13
Format                                   : PGS
Muxing mode                              : zlib
Codec ID                                 : S_HDMV/PGS
Codec ID/Info                            : Picture based subtitle format used on BDs/HD-DVDs
Duration                                 : 1 h 43 min
Bit rate                                 : 19.8 kb/s
Count of elements                        : 2710
Stream size                              : 14.7 MiB (0%)
Title                                    : Thai PGS BIG
Language                                 : Thai
Default                                  : No
Forced                                   : No

Text #11
ID                                       : 14
Format                                   : PGS
Muxing mode                              : zlib
Codec ID                                 : S_HDMV/PGS
Codec ID/Info                            : Picture based subtitle format used on BDs/HD-DVDs
Duration                                 : 1 h 43 min
Bit rate                                 : 17.9 kb/s
Count of elements                        : 2710
Stream size                              : 13.3 MiB (0%)
Title                                    : Thai PGS OUT
Language                                 : Thai
Default                                  : No
Forced                                   : No

Text #12
ID                                       : 15
Format                                   : PGS
Muxing mode                              : zlib
Codec ID                                 : S_HDMV/PGS
Codec ID/Info                            : Picture based subtitle format used on BDs/HD-DVDs
Duration                                 : 1 h 43 min
Bit rate                                 : 18.0 kb/s
Count of elements                        : 2710
Stream size                              : 13.4 MiB (0%)
Title                                    : Thai PGS Yellow
Language                                 : Thai
Default                                  : No
 Forced                                   : No























Download: cornfile
http://cornfile.com/j2ciqt4xw1fc
Download: mekafile
http://www.mekafile.com/dl.php?f=8m1e4abUtfZB