+ Reply to Thread
Results 1 to 1 of 1
  1. #1
    Administrators Duckload.us's Avatar
    Join Date
    Dec 2010
    Posts
    104,358
    Thanks
    9
    Thanked 107,564 Times in 50,734 Posts

    Question [ฝรั่ง]-[* V2+เสียงไทยโรงชัด! *] Aladdin (2019) อะลาดิน [* 720p.HDCAM.x264.AC3.THR2.0 *] [พากย์ไทยโรง 2.0 + เสียงอังกฤษ 2.0]



    เรื่องย่อ Aladdin อะลาดิน
    เรื่องราวของเด็กหนุ่มยากจนนามว่า อะลาดิน (มีนา มาซูด) เขาถูกพ่อมดจาฟาร์ Aladdin 2019 หลอกล่อ
    ให้เข้าไปเอาตะเกียงในถ้ำสิงห์กลางทะเลทราย ที่นั่นอะลาดินได้ถูตะเกียงปลดปล่อยวิญญาณของยักษ์จี นี่ที่มาพร้อมกับพร 3 ประการ อะลาดินขอพรข้อแรกให้เขาได้เป็นเจ้าชายอาลีเพื่อจัดข บวนขันหมากสุดอลังการไปสู่ขอเจ้าหญิงจัสมิน
    “ดูหนัง อะลาดิน” เขาไปพร้อมกับพรมวิเศษและพาเจ้าหญิงออกเหาะชมโลกในเพ ลง a whole new world ภาพยนตร์เต็มไปด้วยการผจญภัย การแย่งชิงบัลลังก์ของจาฟาร์ และความอลังการของโปรดักชั่น

    Video
    ID : 1
    Format : AVC
    Format/Info : Advanced Video Codec
    Format profile : [email protected]
    Format settings, CABAC : Yes
    Format settings, RefFrames : 5 frames
    Codec ID : V_MPEG4/ISO/AVC
    Duration : 1 h 53 min
    Bit rate : 2 500 kb/s
    Width : 1 280 pixels
    Height : 534 pixels
    Display aspect ratio : 2.40:1
    Frame rate mode : Variable
    Frame rate : 30.000 FPS
    Color space : YUV
    Chroma subsampling : 4:2:0
    Bit depth : 8 bits
    Scan type : Progressive
    Bits/(Pixel*Frame) : 0.122
    Stream size : 1.99 GiB (84%)
    Title : Aladdin.2019.720p.HDCAM.x264.AC3.THR2.0_HeRMineZ
    Writing library : x264 core 157 r2935 545de2f
    Encoding settings : cabac=1 / ref=5 / deblock=1:-1:-1 / analyse=0x3:0x113 / me=hex / subme=7 / psy=1 / psy_rd=1.00:0.15 / mixed_ref=1 / me_range=16 / chroma_me=1 / trellis=1 / 8x8dct=1 / cqm=0 / deadzone=21,11 / fast_pskip=1 / chroma_qp_offset=-3 / threads=9 / lookahead_threads=1 / sliced_threads=0 / nr=0 / decimate=1 / interlaced=0 / bluray_compat=0 / constrained_intra=0 / bframes=5 / b_pyramid=2 / b_adapt=1 / b_bias=0 / direct=1 / weightb=1 / open_gop=0 / weightp=2 / keyint=300 / keyint_min=30 / scenecut=40 / intra_refresh=0 / rc_lookahead=40 / rc=abr / mbtree=1 / bitrate=2500 / ratetol=1.0 / qcomp=0.60 / qpmin=0 / qpmax=69 / qpstep=4 / vbv_maxrate=62500 / vbv_bufsize=78125 / nal_hrd=none / filler=0 / ip_ratio=1.40 / aq=1:1.00
    Default : Yes
    Forced : No
    Color range : Limited
    Color primaries : BT.709
    Transfer characteristics : BT.709
    Matrix coefficients : BT.709

    Audio #1
    ID : 2
    Format : AC-3
    Format/Info : Audio Coding 3
    Format settings, Endianness : Big
    Codec ID : A_AC3
    Duration : 1 h 53 min
    Bit rate mode : Constant
    Bit rate : 256 kb/s
    Channel(s) : 2 channels
    Channel positions : Front: L R
    Sampling rate : 48.0 kHz
    Frame rate : 31.250 FPS (1536 SPF)
    Bit depth : 16 bits
    Compression mode : Lossy
    Delay relative to video : -67 ms
    Stream size : 208 MiB (9%)
    Title : Thai Rong 2.0 @256 Kbps Modified By HeRMineZ
    Language : Thai
    Service kind : Complete Main
    Default : Yes
    Forced : No

    Audio #2
    ID : 3
    Format : AC-3
    Format/Info : Audio Coding 3
    Format settings, Endianness : Big
    Codec ID : A_AC3
    Duration : 1 h 53 min
    Bit rate mode : Constant
    Bit rate : 224 kb/s
    Channel(s) : 2 channels
    Channel positions : Front: L R
    Sampling rate : 48.0 kHz
    Frame rate : 31.250 FPS (1536 SPF)
    Bit depth : 16 bits
    Compression mode : Lossy
    Delay relative to video : -67 ms
    Stream size : 182 MiB (7%)
    Title : English 2.0 @224 Kbps
    Language : English
    Service kind : Complete Main
    Default : No
    Forced : No











    Download: cornfile
    http://cornfile.com/67ovi0shdybn
    Download: mekafile
    http://www.mekafile.com/dl.php?f=cG0547bUtNBe

  2. The Following User Says Thank You to Duckload.us For This Useful Post:

    Wesker_TOT (05-26-2019)

+ Reply to Thread

Thread Information

Users Browsing this Thread

There are currently 1 users browsing this thread. (0 members and 1 guests)

     

Posting Permissions

  • You may not post new threads
  • You may not post replies
  • You may not post attachments
  • You may not edit your posts