เรื่องย่อ : เรื่องราวของ อเดเลด วิลสัน (ลูปิต้า เอ็นยองโก) หญิงสาวซึ่งกลับไปยังชายหาดบ้านเกิดในวัยเด็กของเธอ พร้อมกับ เก๊บ (วินสตัน ดุ๊ก จาก Black Panther) สามีของเธอ และลูก ๆ สองคน เพื่อพักผ่อน Us เป็นเรื่องราวเกิดขึ้นที่ชายฝั่งแคลิฟอร์เนียตอนเหนื อ อเดเลด ถูกหลอกหลอนจากการบาดเจ็บที่ไม่สามารถอธิบายได้และไม ่สามารถแก้ไขได้จากอดีตของเธอ ความหวาดระแวงของเธอยกระดับมากขึ้น และเธอเชื่อว่าจะมีบางสิ่งบางอย่างที่ไม่ดีเกิดขึ้นก ับครอบครัวของเธออย่างแน่นอน หลังจากที่พักผ่อนที่หาดพร้อมกับเพื่อน ๆ อเดเลดและครอบครัวกลับมายังบ้านพักตากอากาศ เมื่อพลบค่ำ ครอบครัววิลสันพบกับภาพเงาทั้งสี่กำลังจับมือกันบนถน น Us คือเรื่องราวของครอบครัวชาวอเมริกัน ที่เผชิญกับคู่ต่อสู้ที่น่ากลัวและแปลกประหลาด: ร่างแฝดปีศาจของพวกเขาเอง!!

Video
ID : 1
Format : AVC
Format/Info : Advanced Video Codec
Format profile : [email protected]
Format settings, CABAC : Yes
Format settings, RefFrames : 5 frames
Codec ID : V_MPEG4/ISO/AVC
Duration : 1 h 56 min
Bit rate : 4 553 kb/s
Width : 1 916 pixels
Height : 796 pixels
Display aspect ratio : 2.40:1
Frame rate mode : Constant
Frame rate : 23.976 FPS
Color space : YUV
Chroma subsampling : 4:2:0
Bit depth : 8 bits
Scan type : Progressive
Bits/(Pixel*Frame) : 0.125
Stream size : 3.70 GiB (86%)
Title : Us.2019.1080p.WEB-DL.DD5.1.x264.AC3.THR5.1_HeRMineZ
Language : English
Default : Yes
Forced : No
Color range : Limited
Color primaries : BT.709
Transfer characteristics : BT.709
Matrix coefficients : BT.709

Audio #1
ID : 2
Format : AC-3
Format/Info : Audio Coding 3
Format settings, Endianness : Big
Codec ID : A_AC3
Duration : 1 h 56 min
Bit rate mode : Constant
Bit rate : 384 kb/s
Channel(s) : 6 channels
Channel positions : Front: L C R, Side: L R, LFE
Sampling rate : 48.0 kHz
Frame rate : 31.250 FPS (1536 SPF)
Bit depth : 16 bits
Compression mode : Lossy
Stream size : 320 MiB (7%)
Title : Thai Rong 5.1 @384 Kbps Modified By HeRMineZ
Language : Thai
Service kind : Complete Main
Default : Yes
Forced : No

Audio #2
ID : 3
Format : AC-3
Format/Info : Audio Coding 3
Format settings, Endianness : Big
Codec ID : A_AC3
Duration : 1 h 56 min
Bit rate mode : Constant
Bit rate : 384 kb/s
Channel(s) : 6 channels
Channel positions : Front: L C R, Side: L R, LFE
Sampling rate : 48.0 kHz
Frame rate : 31.250 FPS (1536 SPF)
Bit depth : 16 bits
Compression mode : Lossy
Stream size : 320 MiB (7%)
Title : English 5.1 @384 Kbps
Language : English
Service kind : Complete Main
Default : No
Forced : No

Text
ID : 4
Format : UTF-8
Codec ID : S_TEXT/UTF8
Codec ID/Info : UTF-8 Plain Text
Duration : 1 h 56 min
Bit rate : 57 b/s
Count of elements : 1749
Stream size : 48.8 KiB (0%)
Title : English [SDH]
Language : English
Default : Yes
Forced : No

Menu
00:00:00.000 : en:1
00:06:06.157 : en:2
00:11:26.352 : en:3
00:17:13.115 : en:4
00:23:25.654 : en:5
00:29:32.520 : en:6
00:36:08.791 : en:7
00:41:08.756 : en:8
00:48:09.301 : en:9
00:55:44.255 : en:10
01:03:01.316 : en:11
01:07:50.354 : en:12
01:14:26.208 : en:13
01:20:13.013 : en:14
01:25:26.951 : en:15
01:29:45.042 : en:16
01:35:22.670 : en:17
01:40:55.543 : en:18
01:47:37.902 : en:19
01:52:15.386 : en:20














Download: cornfile
http://cornfile.com/xhsixhv4kp4t
Download: mekafile
http://www.mekafile.com/dl.php?f=HZe234bUtNJ1