+ Reply to Thread
Results 1 to 1 of 1
  1. #1
    Administrators Duckload.us's Avatar
    Join Date
    Dec 2010
    Posts
    104,199
    Thanks
    9
    Thanked 107,466 Times in 50,706 Posts

    Question [ฝรั่ง]-Captain Marvel (2019) กัปตัน มาร์เวล - [พากย์ไทย+อังกฤษ] [บรรยายไทย+อังกฤษ] 2160p.WEB-DL.DD+5.1.HDR.x265








    Captain Marvel เล่าเรื่องราวของ แครอล แดนเวอร์ส ผู้ที่ชะตาชีวิตผกผัน กลายเป็นหนึ่งในซูเปอร์ฮีโร่ที่แข็งแกร่งที่สุดในจัก รวาล เมื่อครั้งที่โลกมนุษย์ถูกเปลี่ยนไปเป็นสนามรบของสงค รามอวกาศระหว่างเอเลี่ยนสองเผ่าพันธุ์.. เกิดขึ้นในช่วงปี 1990 Captain Marvel คือภาพยนตร์ที่จะพาไปพบกับการผจญภัยโฉมใหม่จากยุคสมั ยที่ทุกคนไม่เคยเห็นมาก่อนในประวัติศาสตร์ของจักรวาล ภาพยนตร์มาร์เวล





    Duration : 2 h 3 min
    Overall bit rate : 14.9 Mb/s
    Encoded date : UTC 2019-05-28 12:02:40
    Writing application : mkvmerge v34.0.0 ('Sight and Seen') 64-bit
    Writing library : libebml v1.3.7 + libmatroska v1.5.0
    Cover : Yes
    Attachments : cover

    Video
    ID : 1
    Format : HEVC
    Format/Info : High Efficiency Video Coding
    Format profile : Main [email protected]@Main
    HDR format : SMPTE ST 2086, HDR10 compatible
    Codec ID : V_MPEGH/ISO/HEVC
    Duration : 2 h 3 min
    Bit rate : 13.6 Mb/s
    Width : 3 840 pixels
    Height : 2 160 pixels
    Display aspect ratio : 16:9
    Frame rate mode : Constant
    Frame rate : 23.976 (24000/1001) FPS
    Color space : YUV
    Chroma subsampling : 4:2:0 (Type 2)
    Bit depth : 10 bits
    Bits/(Pixel*Frame) : 0.068
    Stream size : 11.7 GiB (91%)
    Default : Yes
    Forced : No
    Color range : Limited
    Color primaries : BT.2020
    Transfer characteristics : PQ
    Matrix coefficients : BT.2020 non-constant
    Mastering display color primaries : Display P3
    Mastering display luminance : min: 0.0050 cd/m2, max: 4000 cd/m2
    Maximum Content Light Level : 1036 cd/m2
    Maximum Frame-Average Light Level : 734 cd/m2

    Audio #1
    ID : 2
    Format : E-AC-3 JOC
    Format/Info : Enhanced AC-3 with Joint Object Coding
    Commercial name : Dolby Digital Plus with Dolby Atmos
    Codec ID : A_EAC3
    Duration : 2 h 3 min
    Bit rate mode : Constant
    Bit rate : 576 kb/s
    Channel(s) : 6 channels
    Channel layout : L R C LFE Ls Rs
    Sampling rate : 48.0 kHz
    Frame rate : 31.250 FPS (1536 SPF)
    Compression mode : Lossy
    Stream size : 510 MiB (4%)
    Language : English
    Service kind : Complete Main
    Default : No
    Forced : No
    Complexity index : 16
    Number of dynamic objects : 15
    Bed channel count : 1 channel
    Bed channel configuration : LFE

    Audio #2
    ID : 3
    Format : AAC LC
    Format/Info : Advanced Audio Codec Low Complexity
    Codec ID : A_AAC-2
    Duration : 2 h 3 min
    Bit rate : 126 kb/s
    Channel(s) : 2 channels
    Channel layout : L R
    Sampling rate : 48.0 kHz
    Frame rate : 46.875 FPS (1024 SPF)
    Compression mode : Lossy
    Stream size : 111 MiB (1%)
    Title : Thai Master 2.0
    Language : Thai
    Default : Yes
    Forced : No

    Audio #3
    ID : 4
    Format : AC-3
    Format/Info : Audio Coding 3
    Commercial name : Dolby Digital
    Codec ID : A_AC3
    Duration : 2 h 3 min
    Bit rate mode : Constant
    Bit rate : 640 kb/s
    Channel(s) : 6 channels
    Channel layout : L R C LFE Ls Rs
    Sampling rate : 48.0 kHz
    Frame rate : 31.250 FPS (1536 SPF)
    Bit depth : 16 bits
    Compression mode : Lossy
    Stream size : 566 MiB (4%)
    Title : Thai Modify 5.1
    Language : Thai
    Service kind : Complete Main
    Default : No
    Forced : No

    Text #1
    ID : 5
    Format : PGS
    Muxing mode : zlib
    Codec ID : S_HDMV/PGS
    Codec ID/Info : Picture based subtitle format used on BDs/HD-DVDs
    Duration : 2 h 2 min
    Bit rate : 32.8 kb/s
    Count of elements : 3336
    Stream size : 28.7 MiB (0%)
    Title : Eng PGS (SDH)
    Language : English
    Default : No
    Forced : No

    Text #2
    ID : 6
    Format : PGS
    Muxing mode : zlib
    Codec ID : S_HDMV/PGS
    Codec ID/Info : Picture based subtitle format used on BDs/HD-DVDs
    Duration : 1 h 53 min
    Bit rate : 24.0 kb/s
    Count of elements : 2540
    Stream size : 19.5 MiB (0%)
    Title : Eng PGS
    Language : English
    Default : Yes
    Forced : No

    Text #3
    ID : 7
    Format : PGS
    Muxing mode : zlib
    Codec ID : S_HDMV/PGS
    Codec ID/Info : Picture based subtitle format used on BDs/HD-DVDs
    Duration : 2 h 2 min
    Bit rate : 22.6 kb/s
    Count of elements : 2640
    Stream size : 19.8 MiB (0%)
    Title : Thai PGS
    Language : Thai
    Default : No
    Forced : No





    Download: cornfile
    http://cornfile.com/26qldgbkispq
    Download: mekafile
    http://www.mekafile.com/dl.php?f=UL4706bUByz7

  2. The Following User Says Thank You to Duckload.us For This Useful Post:

    mahns8f2u (07-06-2019)

+ Reply to Thread

Thread Information

Users Browsing this Thread

There are currently 1 users browsing this thread. (0 members and 1 guests)

     

Posting Permissions

  • You may not post new threads
  • You may not post replies
  • You may not post attachments
  • You may not edit your posts