••• 1080p.BluRay.THR5.1.x264_By [email protected] •••
พากย์ไทยโรง 5.1 + เสียงอังกฤษ DTS + บรรยายอังกฤษ From Blu-ray Master


Captive State 10 ปีหลังจากที่มนุษย์ต่างดาวรุกรานโลก พลเมืองของชิคาโก้แตกเป็นสองกลุ่ม กลุ่มที่สวามิภักดิ์ต่อเอเลี่ยนและกลุ่มกบฏต่อต้านที ่ยืนหยัดต่อสู้กับผู้รุกราน CAPTIVE STATE คือการผจญภัยในโลกดิสโปเปียที่สงครามครั้งใหญ่พร้อมจ ะอุบัติได้ทุกเมื่อ หลังจากถูกรุกรานมาเกือบหนึ่งทศวรรษ หน่วยกองกำลังต่อต้านใต้ดินที่นำโดยชายลึกลับที่ชื่อ ว่า ฟีนิกซ์ เฝ้ารอโอกาสที่จะทวงสันติคืนให้เหล่ามนุษย์ วิลเลียม มัลลิแกน (จอห์น กู้ดแมน) นายตำรวจมากประสบการณ์ต้องตามล่าฟินิกซ์ ระหว่างภารกิจเขาตกหลุมรักกับหญิงสาวไร้นาม (เวร่า ฟาร์มิกา) ทั้งคู่วาดว่าจะสร้างอนาคตร่วมกันในเมืองที่ล่มสลายแ ห่งนี้ ทางฝั่งผู้สมรู้ร่วมคิด ริทเทนเฮาส์ และ เอลลิสันเตรียมปลุกปั่นผู้คนให้ลุกฮือต่อต้านครั้งให ญ่ พวกเขาเกณฑ์ เกเบรียล เฟรเซอร์ (แอชตัน แซนเดอร์ส) เด็กหนุ่มที่เสียพ่อแม่ไประหว่างช่วงรุกราน เกเบรียลใกล้ชิดกับสมาชิกระดับสูงของฝ่ายกบฏทำให้มัล ลิแกนเชื่อว่าเขาจะเป็นกุญแจสำคัญในการเปิดโปงตัวจนท ี่แท้จริงของฟินิกซ์!


Format : Matroska
Format version : Version 4
File size : 7.99 GiB
Duration : 1 h 49 min
Overall bit rate : 10.4 Mb/s
Movie name : Captive.State.2019.1080p.BluRay.THR5.1.x264_By [email protected]

Video
ID : 1
Format : AVC
Format/Info : Advanced Video Codec
Format profile : [email protected]
Format settings : CABAC / 5 Ref Frames
Format settings, CABAC : Yes
Format settings, Reference : 5 frames
Codec ID : V_MPEG4/ISO/AVC
Duration : 1 h 49 min
Bit rate : 8 486 kb/s
Width : 1 920 pixels
Height : 808 pixels
Display aspect ratio : 2.40:1
Frame rate mode : Constant
Frame rate : 23.976 (24000/1001) FPS
Color space : YUV
Chroma subsampling : 4:2:0
Bit depth : 8 bits
Scan type : Progressive
Bits/(Pixel*Frame) : 0.228
Stream size : 6.49 GiB (81%)
Title : Captive.State.2019.1080p.BluRay.THR5.1.x264_By [email protected]
Writing library : x264 core 157 r2969 d4099dd
Encoding settings : cabac=1 / ref=5 / deblock=1:1:1 / analyse=0x3:0x133 / me=umh / subme=8 / psy=1 / psy_rd=1.00:0.00 / mixed_ref=1 / me_range=16 / chroma_me=1 / trellis=1 / 8x8dct=1 / cqm=0 / deadzone=21,11 / fast_pskip=0 / chroma_qp_offset=-2 / threads=24 / lookahead_threads=4 / sliced_threads=0 / nr=0 / decimate=1 / interlaced=0 / bluray_compat=0 / constrained_intra=0 / bframes=3 / b_pyramid=2 / b_adapt=2 / b_bias=0 / direct=3 / weightb=1 / open_gop=0 / weightp=2 / keyint=250 / keyint_min=23 / scenecut=40 / intra_refresh=0 / rc_lookahead=50 / rc=2pass / mbtree=1 / bitrate=8486 / ratetol=1.0 / qcomp=0.60 / qpmin=0 / qpmax=69 / qpstep=4 / cplxblur=20.0 / qblur=0.5 / ip_ratio=1.40 / aq=1:1.00
Language : English
Default : Yes
Forced : No

Audio #1
ID : 2
Format : AC-3
Format/Info : Audio Coding 3
Commercial name : Dolby Digital
Codec ID : A_AC3
Duration : 1 h 49 min
Bit rate mode : Constant
Bit rate : 448 kb/s
Channel(s) : 6 channels
Channel layout : L R C LFE Ls Rs
Sampling rate : 48.0 kHz
Frame rate : 31.250 FPS (1536 SPF)
Bit depth : 16 bits
Compression mode : Lossy
Stream size : 351 MiB (4%)
Title : ThaiRong 5.1 @ 448 kb/s By [email protected]
Language : Thai
Service kind : Complete Main
Default : Yes
Forced : Yes

Audio #2
ID : 3
Format : DTS
Format/Info : Digital Theater Systems
Codec ID : A_DTS
Duration : 1 h 49 min
Bit rate mode : Constant
Bit rate : 1 509 kb/s
Channel(s) : 6 channels
Channel layout : C L R Ls Rs LFE
Sampling rate : 48.0 kHz
Frame rate : 93.750 FPS (512 SPF)
Bit depth : 24 bits
Compression mode : Lossy
Stream size : 1.15 GiB (14%)
Title : English DTS
Language : English
Default : No
Forced : No

Text
ID : 4
Format : UTF-8
Codec ID : S_TEXT/UTF8
Codec ID/Info : UTF-8 Plain Text
Duration : 1 h 45 min
Bit rate : 46 b/s
Count of elements : 1123
Stream size : 35.6 KiB (0%)
Title : English
Language : English
Default : No
Forced : No

Menu
00:00:00.000 : en:00:00:00.000
00:06:25.385 : en:00:06:25.385
00:12:34.671 : en:00:12:34.671
00:18:46.000 : en:00:18:46.000
00:24:21.377 : en:00:24:21.377
00:26:55.113 : en:00:26:55.113
00:32:44.504 : en:00:32:44.504
00:38:27.597 : en:00:38:27.597
00:43:36.948 : en:00:43:36.948
00:47:17.626 : en:00:47:17.626
00:52:14.465 : en:00:52:14.465
01:00:01.598 : en:01:00:01.598
01:06:42.373 : en:01:06:42.373
01:11:29.577 : en:01:11:29.577
01:15:18.222 : en:01:15:18.222
01:19:40.859 : en:01:19:40.859
01:23:32.049 : en:01:23:32.049
01:31:46.543 : en:01:31:46.543
01:38:12.011 : en:01:38:12.011
01:45:00.711 : en:01:45:00.711











8.0 GB
http://cornfile.com/bb9w7nhs94n6
http://www.mekafile.com/dl.php?f=rx4f67bUGjJn

4.7 GB
http://cornfile.com/ly248qaghkid
http://www.mekafile.com/dl.php?f=6608efbUGjUM

3.4 GB
http://cornfile.com/zkvwzf6dwxf2
http://www.mekafile.com/dl.php?f=Iy83c5bUGjA0