+ Reply to Thread
Results 1 to 5 of 5
  1. #1
    Administrators Duckload.us's Avatar
    Join Date
    Dec 2010
    Posts
    107,108
    Thanks
    9
    Thanked 111,556 Times in 51,850 Posts

    Question []-Animal Farm (1999) ͧѾҷҪ-Encode.Xvid.720p. [Modified]-[ҡ ]





    Animal Farm



    Rating: 6/10 Year: 1999 Genres: Comedy / Drama / Family Runtime: 91 min Language: English Director: John Stephenson Writers: George Orwell / Alan Janes / Martyn Burke Cast: Kelsey Grammer / Ian Holm / Julia Louis-DreyfusPlot:

    A satire of Stalinist Russia, this story tells of the revolt of the animals of Manor Farm against their human masters. Led by the pigs Snowball (Trotsky) and Napoleon (Stalin), the animals attempt to create a utopian society. Soon, however, Napoleon gets a taste for power, drives out Snowball, and establishes a totalitarian regime as brutal and corrupt as any human society. Manor Farm becomes a world where all animals are equal, but some are more equal than others. Written by David Rickard


    ͧ

    Animal Farm ͧǢͧҺôѵ ժԵѹ㹿˹ ժǹҢҢͧ ķҷ ѺԴͺ 㨴źôѵҧ ˵ǡѵǡѹѵ ִӹҨҡҢͧ ռ 2 й¹

    ӡѺ

    - John Stephenson

    ѡʴ

    - Kelsey Grammer
    - Ian Holm
    - Julia Louis-Dreyfus

    к§

    - English 5.1
    - Thai 5.1

    Ӻ

    - Thai

    Format : Matroska
    Format version : Version 4 / Version 2
    File size : 1.53 GiB
    Duration : 1 h 31 min
    Overall bit rate mode : Variable
    Overall bit rate : 2 401 kb/s
    Encoded date : UTC 2019-05-30 20:28:59
    Writing application : mkvmerge v10.0.0 ('To Drown In You') 32bit
    Writing library : libebml v1.3.4 + libmatroska v1.4.5

    Video
    ID : 1
    Format : AVC
    Format/Info : Advanced Video Codec
    Format profile : [email protected]
    Format settings : CABAC / 5 Ref Frames
    Format settings, CABAC : Yes
    Format settings, ReFrames : 5 frames
    Format settings, GOP : M=4, N=13
    Codec ID : V_MPEG4/ISO/AVC
    Duration : 1 h 31 min
    Bit rate : 2 144 kb/s
    Width : 1 280 pixels
    Height : 720 pixels
    Display aspect ratio : 16:9
    Frame rate mode : Constant
    Frame rate : 23.976 (23976/1000) FPS
    Color space : YUV
    Chroma subsampling : 4:2:0
    Bit depth : 8 bits
    Scan type : Progressive
    Bits/(Pixel*Frame) : 0.097
    Stream size : 1.36 GiB (89%)
    Writing library : x264 core 110
    Encoding settings : cabac=1 / ref=5 / deblock=1:0:0 / analyse=0x3:0x133 / me=hex / subme=8 / psy=1 / psy_rd=1.00:0.00 / mixed_ref=1 / me_range=16 / chroma_me=0 / trellis=1 / 8x8dct=1 / cqm=0 / deadzone=21,11 / fast_pskip=1 / chroma_qp_offset=-2 / threads=4 / sliced_threads=0 / nr=0 / decimate=1 / interlaced=0 / constrained_intra=0 / bframes=3 / b_pyramid=0 / b_adapt=0 / b_bias=0 / direct=3 / weightb=1 / open_gop=0 / weightp=0 / keyint=13 / keyint_min=7 / scenecut=0 / intra_refresh=0 / rc_lookahead=13 / rc=abr / mbtree=1 / bitrate=2144 / ratetol=1.0 / qcomp=0.00 / qpmin=10 / qpmax=51 / qpstep=4 / ip_ratio=1.41 / aq=1:1.00
    Default : Yes
    Forced : No

    Audio #1
    ID : 2
    Format : AAC
    Format/Info : Advanced Audio Codec
    Format profile : LC
    Codec ID : A_AAC-2
    Duration : 1 h 31 min
    Bit rate : 160 kb/s
    Channel(s) : 2 channels
    Channel positions : Front: L R
    Sampling rate : 48.0 kHz
    Frame rate : 46.875 FPS (1024 SPF)
    Compression mode : Lossy
    Stream size : 105 MiB (7%)
    Language : Thai
    Default : Yes
    Forced : Yes

    Audio #2
    ID : 3
    Format : MPEG Audio
    Format version : Version 1
    Format profile : Layer 3
    Format settings : Joint stereo / MS Stereo
    Codec ID : A_MPEG/L3
    Codec ID/Hint : MP3
    Duration : 1 h 31 min
    Bit rate mode : Variable
    Bit rate : 105 kb/s
    Nominal bit rate : 128 kb/s
    Channel(s) : 2 channels
    Sampling rate : 48.0 kHz
    Frame rate : 41.667 FPS (1152 SPF)
    Compression mode : Lossy
    Stream size : 69.0 MiB (4%)
    Writing library : LAME3.97
    Encoding settings : -m j -V 4 -q 2 -lowpass 17 --abr 128
    Language : English
    Default : No
    Forced : No

    Text #1
    ID : 4
    Format : UTF-8
    Codec ID : S_TEXT/UTF8
    Codec ID/Info : UTF-8 Plain Text
    Duration : 1 h 27 min
    Bit rate : 108 b/s
    Count of elements : 980
    Stream size : 69.4 KiB (0%)
    Language : Thai
    Default : Yes
    Forced : Yes

    Text #2
    ID : 5
    Format : VobSub
    Muxing mode : zlib
    Codec ID : S_VOBSUB
    Codec ID/Info : Picture based subtitle format used on DVDs
    Duration : 1 h 27 min
    Bit rate : 1 692 b/s
    Count of elements : 1848
    Stream size : 1.06 MiB (0%)
    Language : Thai
    Default : No
    Forced : No

    Text #3
    ID : 6
    Format : UTF-8
    Codec ID : S_TEXT/UTF8
    Codec ID/Info : UTF-8 Plain Text
    Duration : 1 h 27 min
    Bit rate : 49 b/s
    Count of elements : 1109
    Stream size : 31.4 KiB (0%)
    Language : English
    Default : No
    Forced : No






    Download: cornfile
    http://cornfile.com/akrsep19texd
    Download: mekafile
    http://www.mekafile.com/dl.php?f=lX55e4bUGuOQ fix

  2. The Following 3 Users Say Thank You to Duckload.us For This Useful Post:

    apichartdear (06-01-2019), bigbang06 (05-31-2019), smakha (06-04-2019)

  3. #2
    Junior Member
    Join Date
    Aug 2018
    Posts
    11
    Thanks
    0
    Thanked 0 Times in 0 Posts
    55555

  4. #3
    Senior Member
    Join Date
    Jun 2014
    Posts
    1,027
    Thanks
    0
    Thanked 0 Times in 0 Posts
    ͺسѺ

  5. #4
    Senior Member
    Join Date
    May 2012
    Posts
    221
    Thanks
    0
    Thanked 0 Times in 0 Posts
    Ŵmakafile ͧ Arizona (2018)

  6. #5
    Administrators Duckload.us's Avatar
    Join Date
    Dec 2010
    Posts
    107,108
    Thanks
    9
    Thanked 111,556 Times in 51,850 Posts
    Quote Originally Posted by beboylover View Post
    Ŵmakafile ͧ Arizona (2018)
    ¹ ǤѺ

Thread Information

Users Browsing this Thread

There are currently 1 users browsing this thread. (0 members and 1 guests)

     

Posting Permissions

  • You may not post new threads
  • You may not post replies
  • You may not post attachments
  • You may not edit your posts