+ Reply to Thread
Results 1 to 4 of 4
  1. #1
    Administrators Duckload.us's Avatar
    Join Date
    Dec 2010
    Posts
    104,433
    Thanks
    9
    Thanked 107,685 Times in 50,781 Posts

    Question (^*͹!*ҡ^)-Arizona [2018] ⫹-[Super HQ]-[1080p.Bluray.x264][Sound Eng/Thai AC3 5.1:MASTER::Modifide][SUB:Eng]




    *** Arizona [2018] ⫹ ***

    šͧѭҡ
    1080p سҾ٧!
    § From Master.


    Arizona (2018)
    1h 25min | Comedy, Thriller | 24 August 2018 (USA)
    Director: Jonathan Watson
    Writer: Luke Del Tredici
    Stars: Danny McBride, Rosemarie DeWitt, Lolli Sorenson

    ҧعçͧԡѧѾͧ Arizona 㹻 2009 Cassie Fowler ˹Ңºҹ仾繡æҵ ǪԵͨҧõ ???


    Code:
    Format                      : Matroska
    Format version              : Version 4
    File size                   : 3.92 GiB
    Duration                    : 1 h 23 min
    Overall bit rate            : 6 706 kb/s
    Movie name                  : Arizona.2018.1080P.Bluray.X264-[Super HQ]-14
    
    Video
    ID                          : 1
    Format                      : AVC
    Format/Info                 : Advanced Video Codec
    Format profile              : [email protected]
    Format settings             : CABAC / 4 Ref Frames
    Format settings, CABAC      : Yes
    Format settings, ReFrames   : 4 frames
    Codec ID                    : V_MPEG4/ISO/AVC
    Duration                    : 1 h 23 min
    Bit rate                    : 6 222 kb/s
    Width                       : 1 920 pixels
    Height                      : 800 pixels
    Display aspect ratio        : 2.40:1
    Frame rate mode             : Constant
    Frame rate                  : 23.976 (24000/1001) FPS
    Color space                 : YUV
    Chroma subsampling          : 4:2:0
    Bit depth                   : 8 bits
    Scan type                   : Progressive
    Bits/(Pixel*Frame)          : 0.169
    Stream size                 : 3.63 GiB (93%)
    Title                       : Arizona.2018.1080P.Bluray.X264-[Super HQ]-14
    Writing library             : x264 core 155 r2901 7d0ff22
    Language                    : English
    Default                     : Yes
    Forced                      : No
    Color range                 : Limited
    Color primaries             : BT.709
    Transfer characteristics    : BT.709
    Matrix coefficients         : BT.709
    
    Audio #1
    ID                          : 2
    Format                      : AC-3
    Format/Info                 : Audio Coding 3
    Commercial name             : Dolby Digital
    Codec ID                    : A_AC3
    Duration                    : 1 h 23 min
    Bit rate mode               : Constant
    Bit rate                    : 160 kb/s
    Channel(s)                  : 6 channels
    Channel layout              : L R C LFE Ls Rs
    Sampling rate               : 44.1 kHz
    Frame rate                  : 28.711 FPS (1536 SPF)
    Bit depth                   : 16 bits
    Compression mode            : Lossy
    Stream size                 : 95.7 MiB (2%)
    Title                       : 5.1 SC3-Thai 160k 95.7m
    Language                    : Thai
    Service kind                : Complete Main
    Default                     : Yes
    Forced                      : No
    
    Audio #2
    ID                          : 3
    Format                      : AC-3
    Format/Info                 : Audio Coding 3
    Commercial name             : Dolby Digital
    Codec ID                    : A_AC3
    Duration                    : 1 h 23 min
    Bit rate mode               : Constant
    Bit rate                    : 320 kb/s
    Channel(s)                  : 6 channels
    Channel layout              : L R C LFE Ls Rs
    Sampling rate               : 44.1 kHz
    Frame rate                  : 28.711 FPS (1536 SPF)
    Bit depth                   : 16 bits
    Compression mode            : Lossy
    Stream size                 : 191 MiB (5%)
    Title                       : 5.1 AC3-Eng 320k 191m
    Language                    : English
    Service kind                : Complete Main
    Default                     : No
    Forced                      : No
    
    Text #1
    ID                          : 4
    Format                      : ASS
    Codec ID                    : S_TEXT/ASS
    Codec ID/Info               : Advanced Sub Station Alpha
    Duration                    : 1 h 16 min
    Bit rate                    : 118 b/s
    Count of elements           : 1266
    Compression mode            : Lossless
    Stream size                 : 66.7 KiB (0%)
    Title                       : ASS
    Language                    : English
    Default                     : Yes
    Forced                      : No
    
    Text #2
    ID                          : 5
    Format                      : ASS
    Codec ID                    : S_TEXT/ASS
    Codec ID/Info               : Advanced Sub Station Alpha
    Duration                    : 1 h 20 min
    Bit rate                    : 131 b/s
    Count of elements           : 1448
    Compression mode            : Lossless
    Stream size                 : 76.9 KiB (0%)
    Title                       : ASS-Hearing Impaired=麡ͧҧ§
    Language                    : English
    Default                     : No
    Forced                      : No
    
    Text #3
    ID                          : 6
    Format                      : UTF-8
    Codec ID                    : S_TEXT/UTF8
    Codec ID/Info               : UTF-8 Plain Text
    Duration                    : 1 h 16 min
    Bit rate                    : 69 b/s
    Count of elements           : 1266
    Stream size                 : 39.3 KiB (0%)
    Title                       : SRT
    Language                    : English
    Default                     : No
    Forced                      : No
    
    Text #4
    ID                          : 7
    Format                      : UTF-8
    Codec ID                    : S_TEXT/UTF8
    Codec ID/Info               : UTF-8 Plain Text
    Duration                    : 1 h 20 min
    Bit rate                    : 77 b/s
    Count of elements           : 1448
    Stream size                 : 45.4 KiB (0%)
    Title                       : SRT-Hearing Impaired=麡ͧҧ§
    Language                    : English
    Default                     : No
    Forced                      : No





    7.5 GB
    http://cornfile.com/mi8ym3p7iyk0
    http://www.mekafile.com/dl.php?f=Up3181bUGN85
    3.9 GB
    http://cornfile.com/wsavbmvbwq1n
    http://www.mekafile.com/dl.php?f=Pz68f4bUGvoi

  2. The Following 4 Users Say Thank You to Duckload.us For This Useful Post:

    apichartdear (05-31-2019), gaszolineskywalker (06-20-2019), noi54 (06-01-2019), Wesker_TOT (06-01-2019)

  3. #2
    Senior Member
    Join Date
    Dec 2013
    Posts
    1,669
    Thanks
    3,625
    Thanked 0 Times in 0 Posts
    ͺسѺ...

  4. #3
    Senior Member
    Join Date
    Jun 2014
    Posts
    678
    Thanks
    0
    Thanked 0 Times in 0 Posts
    ͺسѺ

  5. #4
    Senior Member
    Join Date
    Oct 2012
    Posts
    625
    Thanks
    1,564
    Thanked 0 Times in 0 Posts
    ͺسѺ

Thread Information

Users Browsing this Thread

There are currently 1 users browsing this thread. (0 members and 1 guests)

     

Posting Permissions

  • You may not post new threads
  • You may not post replies
  • You may not post attachments
  • You may not edit your posts