+ Reply to Thread
Results 1 to 5 of 5
  1. #1
    Administrators Duckload.us's Avatar
    Join Date
    Dec 2010
    Posts
    104,358
    Thanks
    9
    Thanked 107,564 Times in 50,734 Posts

    Question (^ฝรั่ง*ใหม่ร้อนๆ!*พากย์ไทยมาสเตอร์^)-Assassination Nation [2018] แอสแซสซิเนชั่น เนชั่น-[Super HQ]-[1080p.Bluray.x264]•[Sound Eng/Thai AC3 5.1:MASTER::Modifide]•[SUB:Eng]




    *** Assassination Nation [2018] แอสแซสซิเนชั่น เนชั่น ***

    - เรื่อง The First Purge ที่ฝรั่งวิจารณ์ว่าเหมือนเอาเรื่องการเมืองปาใส่หน้า เรื่องนี้ก็คือจับยัดใส่ปากเลยล่ะ
    ด้วยการยัดเยียดประเด็นการเมือง, สังคม, เพศและอื่นๆ เข้ามาแบบโต้งๆ
    ที่ชอบมากๆคือ การเอา Hari Nef ซึ่งเป็น Trans Woman (หญิงแปลงเพศ) มาเล่นเป็น 1 ในตัวละครหลัก มันเป็นอะไรที่ยากมากที่ในตัวละครกลุ่มผู้หญิง จะมีตัวละครแบบนี้ ถือเป็นอะไรที่แตกต่าง และดูสนับสนุน LGBT ดี
    ••• ไฟล์ 1080p คุณภาพสูง! •••
    เสียงไทย From Master.


    Assassination Nation (2018)
    R | 1h 48min | Action, Comedy, Crime | 21 September 2018 (USA)
    Director: Sam Levinson
    Writer: Sam Levinson
    Stars: Odessa Young, Abra, Suki Waterhouse

    แก๊ง 4 สาวเพื่อนสนิทถูกตามล่าจากคนทั้งเมือง หลังทุกคนโดนแฮคข้อมูลส่วนตัว และเข้าใจผิดว่าเป็นฝีมือของพวกเธอ
    : ลิลี่ สาวไฮสคูลและแก๊งเพื่อน ใช้ชีวิตอยู่กับข้อความ โพสต์ เซลฟี่ และแชท เหมือนพวกเราทุกคน แต่เมื่อมีคนเริ่มเผยแพร่เรื่องส่วนตัวของทุกคนในเมื องซาเล็ม นั่นรวมไปถึงประวัติการเข้าชมเว็บไซต์ ข้อความส่วนตัว ดาวน์โหลดผิดกฎหมาย ข้อความลูกโซ่ และอะไรที่แย่ยิ่งไปกว่านั้นหลายเท่า ผลลัพธ์ที่ได้กลายเป็นหายนะ ทุกคนเริ่มโมโหและระเบิดความโกรธด้วยความรุนแรงจนคุณ คาดไม่ถึง


    Code:
    Format                      : Matroska
    Format version              : Version 4
    File size                   : 4.37 GiB
    Duration                    : 1 h 47 min
    Overall bit rate            : 5 793 kb/s
    Movie name                  : Assassination Nation (2018) BluRay 1080p -(Super HQ)-17
    
    Video
    ID                          : 1
    Format                      : AVC
    Format/Info                 : Advanced Video Codec
    Format profile              : [email protected]
    Format settings             : CABAC / 4 Ref Frames
    Format settings, CABAC      : Yes
    Format settings, ReFrames   : 4 frames
    Codec ID                    : V_MPEG4/ISO/AVC
    Duration                    : 1 h 47 min
    Bit rate                    : 4 510 kb/s
    Width                       : 1 920 pixels
    Height                      : 800 pixels
    Display aspect ratio        : 2.40:1
    Frame rate mode             : Constant
    Frame rate                  : 23.976 (24000/1001) FPS
    Color space                 : YUV
    Chroma subsampling          : 4:2:0
    Bit depth                   : 8 bits
    Scan type                   : Progressive
    Bits/(Pixel*Frame)          : 0.122
    Stream size                 : 3.40 GiB (78%)
    Title                       : Assassination Nation (2018) BluRay 1080p -(Super HQ)-17
    Writing library             : x264 core 155 r2901 7d0ff22
    Language                    : English
    Default                     : Yes
    Forced                      : No
    Color range                 : Limited
    Color primaries             : BT.709
    Transfer characteristics    : BT.709
    Matrix coefficients         : BT.709
    
    Audio #1
    ID                          : 2
    Format                      : AC-3
    Format/Info                 : Audio Coding 3
    Commercial name             : Dolby Digital
    Codec ID                    : A_AC3
    Duration                    : 1 h 47 min
    Bit rate mode               : Constant
    Bit rate                    : 640 kb/s
    Channel(s)                  : 6 channels
    Channel layout              : L R C LFE Ls Rs
    Sampling rate               : 44.1 kHz
    Frame rate                  : 28.711 FPS (1536 SPF)
    Bit depth                   : 16 bits
    Compression mode            : Lossy
    Stream size                 : 494 MiB (11%)
    Title                       : 5.1 AC3-Thai 640k 494m
    Language                    : Thai
    Service kind                : Complete Main
    Default                     : Yes
    Forced                      : No
    
    Audio #2
    ID                          : 3
    Format                      : AC-3
    Format/Info                 : Audio Coding 3
    Commercial name             : Dolby Digital
    Codec ID                    : A_AC3
    Duration                    : 1 h 47 min
    Bit rate mode               : Constant
    Bit rate                    : 640 kb/s
    Channel(s)                  : 6 channels
    Channel layout              : L R C LFE Ls Rs
    Sampling rate               : 44.1 kHz
    Frame rate                  : 28.711 FPS (1536 SPF)
    Bit depth                   : 16 bits
    Compression mode            : Lossy
    Stream size                 : 494 MiB (11%)
    Title                       : 5.1 AC3-Eng 640k 494m
    Language                    : English
    Service kind                : Complete Main
    Default                     : No
    Forced                      : No
    
    Text #1
    ID                          : 4
    Format                      : ASS
    Codec ID                    : S_TEXT/ASS
    Codec ID/Info               : Advanced Sub Station Alpha
    Duration                    : 1 h 38 min
    Bit rate                    : 96 b/s
    Count of elements           : 1283
    Compression mode            : Lossless
    Stream size                 : 69.2 KiB (0%)
    Title                       : ASS
    Language                    : English
    Default                     : Yes
    Forced                      : No
    
    Text #2
    ID                          : 5
    Format                      : UTF-8
    Codec ID                    : S_TEXT/UTF8
    Codec ID/Info               : UTF-8 Plain Text
    Duration                    : 1 h 38 min
    Bit rate                    : 57 b/s
    Count of elements           : 1283
    Stream size                 : 41.5 KiB (0%)
    Title                       : SRT
    Language                    : English
    Default                     : No
    Forced                      : No
    
    Text #3
    ID                          : 6
    Format                      : UTF-8
    Codec ID                    : S_TEXT/UTF8
    Codec ID/Info               : UTF-8 Plain Text
    Duration                    : 1 h 46 min
    Bit rate                    : 66 b/s
    Count of elements           : 1583
    Stream size                 : 51.6 KiB (0%)
    Title                       : SRT-Hearing Impaired=ผู้บกพร่องทางเสียง
    Language                    : English
    Default                     : No
    Forced                      : No






    Download: cornfile
    http://cornfile.com/hi43q0ea0t7t
    Download: mekafile
    http://www.mekafile.com/dl.php?f=Adea5cbUJ7cZ

  2. The Following 7 Users Say Thank You to Duckload.us For This Useful Post:

    apichartdear (06-02-2019), bigbang06 (06-01-2019), gaszolineskywalker (06-20-2019), noi54 (06-14-2019), sawara (06-04-2019), thesuperpop (06-08-2019), Wesker_TOT (06-02-2019)

  3. #2
    Senior Member
    Join Date
    Dec 2013
    Posts
    1,664
    Thanks
    3,620
    Thanked 0 Times in 0 Posts
    ขอบคุณครับ...

  4. #3
    Senior Member
    Join Date
    Jun 2014
    Posts
    637
    Thanks
    0
    Thanked 0 Times in 0 Posts
    ขอบคุณครับ

  5. #4
    Senior Member
    Join Date
    Dec 2013
    Posts
    256
    Thanks
    177
    Thanked 0 Times in 0 Posts
    ขอบคุณครับ

  6. #5
    Senior Member
    Join Date
    Oct 2012
    Posts
    617
    Thanks
    1,554
    Thanked 0 Times in 0 Posts
    ขอบคุณครับ

+ Reply to Thread

Thread Information

Users Browsing this Thread

There are currently 1 users browsing this thread. (0 members and 1 guests)

     

Posting Permissions

  • You may not post new threads
  • You may not post replies
  • You may not post attachments
  • You may not edit your posts