+ Reply to Thread
Results 1 to 4 of 4
  1. #1
    Administrators Duckload.us's Avatar
    Join Date
    Dec 2010
    Posts
    107,197
    Thanks
    9
    Thanked 111,609 Times in 51,867 Posts

    Cool UEFA.Champions.League.Final.2019.Tottenham.vs.Live rpool.1-06-2019-HDTV.H.264.1080p+720p.[ ѴҡͧѺѭҳ ҾѴѺ +Ѻ]





    UEFA.Champions.League.Final.2019 Tottenham.vs.Liverpool.1-06-2019 ѴҡͧѺѭҳ ҾѴѺ +Ѻ¤Ѻ Ҩ˹¤ѺѴ

    Video: MPEG4 Video (H264) 1920x1080 25fps [V: h264 main L4.0, yuv420p, 1920x1080]
    Audio: MPEG Audio 48000Hz stereo 256kbps [A: English [eng] (mp2, 48000 Hz, stereo, 256 kb/s)]

    General
    ID : 1 (0x1)
    Complete name : Tottenham.vs.Liverpool.1-06-2019Tottenham.vs.Liverpool.1-06-2019.TS
    Format : MPEG-TS
    File size : 10.2 GiB
    Duration : 2 h 28 min
    Overall bit rate mode : Variable
    Overall bit rate : 9 825 kb/s

    Video
    ID : 32 (0x20)
    Menu ID : 804 (0x324)
    Format : AVC
    Format/Info : Advanced Video Codec
    Format profile : [email protected]
    Format settings, CABAC : Yes
    Format settings, RefFrames : 4 frames
    Codec ID : 27
    Duration : 2 h 28 min
    Bit rate : 9 081 kb/s
    Width : 1 920 pixels
    Height : 1 080 pixels
    Display aspect ratio : 16:9
    Frame rate : 25.000 FPS
    Color space : YUV
    Chroma subsampling : 4:2:0
    Bit depth : 8 bits
    Scan type : Interlaced
    Scan type, store method : Separated fields
    Scan order : Top Field First
    Bits/(Pixel*Frame) : 0.175
    Stream size : 9.39 GiB (92%)
    Color range : Limited
    Color primaries : BT.709
    Transfer characteristics : BT.709
    Matrix coefficients : BT.709

    Audio
    ID : 33 (0x21)
    Menu ID : 804 (0x324)
    Format : MPEG Audio
    Format version : Version 1
    Format profile : Layer 2
    Codec ID : 3
    Duration : 2 h 28 min
    Bit rate mode : Constant
    Bit rate : 256 kb/s
    Channel(s) : 2 channels
    Sampling rate : 48.0 kHz
    Compression mode : Lossy
    Delay relative to video : -872 ms
    Stream size : 271 MiB (3%)
    Language : English

    Menu
    ID : 870 (0x366)
    Menu ID : 804 (0x324)
    Duration : 2 h 28 min
    List : 32 (0x20) (AVC) / 33 (0x21) (MPEG Audio, English)
    Language : / English
    Maximum bit rate : 216000000



    ************************************************** ******
    [Champions League- Final + Ѻ] Tottenham Hotspur [Vs] Liverpool [01/06/2019]-HDTV.AC-3.720p.






    Video......... 1280*720, 59.94 fps, ~4500 kbps
    Audio......... English, aac, 44.1 khz, Stereo, 128 kbps

    ************************************************** ***

    [1080p] 10.16 GB
    Download: filecondo
    http://www.filecondo.com/dl.php?f=R1ca631HxjzB
    Download: cornfile
    http://cornfile.com/taq3bkl44di8
    Download: mekafile
    http://www.mekafile.com/dl.php?f=5zeb05bULcwA


    [720p] 3.73 GB
    Download: filecondo
    http://www.filecondo.com/dl.php?f=Ea4cde1HxiYZ
    Download: cornfile
    http://cornfile.com/xacqwpl0j5ih
    Download: mekafile
    http://www.mekafile.com/dl.php?f=OB0193bUL94b

  2. The Following 2 Users Say Thank You to Duckload.us For This Useful Post:

    agg001 (06-02-2019), zhad01 (06-02-2019)

  3. #2
    Senior Member
    Join Date
    Jun 2012
    Posts
    1,214
    Thanks
    0
    Thanked 1 Time in 1 Post
    ͺسҡѺ

  4. #3
    Senior Member
    Join Date
    Jun 2012
    Posts
    1,214
    Thanks
    0
    Thanked 1 Time in 1 Post
    ẺաФѺ cornfile

  5. #4
    Senior Member
    Join Date
    Jan 2011
    Posts
    670
    Thanks
    889
    Thanked 0 Times in 0 Posts
    ͺسѺ

Thread Information

Users Browsing this Thread

There are currently 1 users browsing this thread. (0 members and 1 guests)

     

Posting Permissions

  • You may not post new threads
  • You may not post replies
  • You may not post attachments
  • You may not edit your posts