Captain Marvel เล่าเรื่องราวของ แครอล แดนเวอร์ส ผู้ที่ชะตาชีวิตผกผัน กลายเป็นหนึ่งในซูเปอร์ฮีโร่ที่แข็งแกร่งที่สุดในจัก รวาล เมื่อครั้งที่โลกมนุษย์ถูกเปลี่ยนไปเป็นสนามรบของสงค รามอวกาศระหว่างเอเลี่ยนสองเผ่าพันธุ์.. เกิดขึ้นในช่วงปี 1990 Captain Marvel คือภาพยนตร์ที่จะพาไปพบกับการผจญภัยโฉมใหม่จากยุคสมั ยที่ทุกคนไม่เคยเห็นมาก่อนในประวัติศาสตร์ของจักรวาล ภาพยนตร์มาร์เวล




Duration : 2 h 3 min
Overall bit rate : 3 180 kb/s
Encoded date : UTC 2019-06-04 02:08:21
Writing application : mkvmerge v34.0.0 ('Sight and Seen') 64-bit
Writing library : libebml v1.3.7 + libmatroska v1.5.0
Cover : Yes
Attachments : cover

Video
ID : 1
Format : HEVC
Format/Info : High Efficiency Video Coding
Format profile : Main [email protected]@Main
HDR format : SMPTE ST 2086, HDR10 compatible
Codec ID : V_MPEGH/ISO/HEVC
Duration : 2 h 3 min
Bit rate : 2 149 kb/s
Width : 3 840 pixels
Height : 1 616 pixels
Display aspect ratio : 2.40:1
Frame rate mode : Constant
Frame rate : 23.976 (24000/1001) FPS
Color space : YUV
Chroma subsampling : 4:2:0
Bit depth : 10 bits
Bits/(Pixel*Frame) : 0.014
Stream size : 1.86 GiB (68%)
Default : Yes
Forced : No
Color range : Limited
Color primaries : BT.2020
Transfer characteristics : PQ
Matrix coefficients : BT.2020 non-constant
Mastering display color primaries : Display P3
Mastering display luminance : min: 0.0020 cd/m2, max: 1000 cd/m2

Audio #1
ID : 2
Format : AAC LC SBR
Format/Info : Advanced Audio Codec Low Complexity with Spectral Band Replication
Commercial name : HE-AAC
Format settings : Explicit
Codec ID : A_AAC-2
Duration : 2 h 3 min
Bit rate : 288 kb/s
Channel(s) : 8 channels
Channel layout : C L R Ls Rs Lb Rb LFE
Sampling rate : 48.0 kHz
Frame rate : 23.438 FPS (2048 SPF)
Compression mode : Lossy
Delay relative to video : 31 ms
Stream size : 257 MiB (9%)
Language : English
Default : No
Forced : No

Audio #2
ID : 3
Format : AC-3
Format/Info : Audio Coding 3
Commercial name : Dolby Digital
Codec ID : A_AC3
Duration : 2 h 3 min
Bit rate mode : Constant
Bit rate : 640 kb/s
Channel(s) : 6 channels
Channel layout : L R C LFE Ls Rs
Sampling rate : 48.0 kHz
Frame rate : 31.250 FPS (1536 SPF)
Bit depth : 16 bits
Compression mode : Lossy
Delay relative to video : 50 ms
Stream size : 566 MiB (20%)
Title : Thai Modify 5.1
Language : Thai
Service kind : Complete Main
Default : Yes
Forced : No

Text #1
ID : 4
Format : UTF-8
Codec ID : S_TEXT/UTF8
Codec ID/Info : UTF-8 Plain Text
Duration : 2 h 2 min
Bit rate : 49 b/s
Count of elements : 1668
Stream size : 44.2 KiB (0%)
Title : English-SRT
Language : English
Default : No
Forced : No

Text #2
ID : 5
Format : VobSub
Muxing mode : zlib
Codec ID : S_VOBSUB
Codec ID/Info : Picture based subtitle format used on DVDs
Duration : 2 h 2 min
Bit rate : 13.1 kb/s
Count of elements : 1668
Stream size : 11.5 MiB (0%)
Title : English-VOB
Language : English
Default : No
Forced : No

Text #3
ID : 6
Format : PGS
Muxing mode : zlib
Codec ID : S_HDMV/PGS
Codec ID/Info : Picture based subtitle format used on BDs/HD-DVDs
Duration : 2 h 2 min
Bit rate : 50.4 kb/s
Count of elements : 3336
Stream size : 44.1 MiB (2%)
Title : Thai PGS [White]
Language : English
Default : No
Forced : No

Text #4
ID : 7
Format : PGS
Muxing mode : zlib
Codec ID : S_HDMV/PGS
Codec ID/Info : Picture based subtitle format used on BDs/HD-DVDs
Duration : 2 h 2 min
Bit rate : 50.4 kb/s
Count of elements : 3336
Stream size : 44.1 MiB (2%)
Title : Thai PGS [Yello]
Language : English
Default : No
Forced : No

Text #5
ID : 8
Format : PGS
Muxing mode : zlib
Codec ID : S_HDMV/PGS
Codec ID/Info : Picture based subtitle format used on BDs/HD-DVDs
Duration : 2 h 2 min
Bit rate : 32.8 kb/s
Count of elements : 3330
Stream size : 28.7 MiB (1%)
Title : English-PGS
Language : English
Default : Yes
Forced : No

Text #6
ID : 9
Format : UTF-8
Codec ID : S_TEXT/UTF8
Codec ID/Info : UTF-8 Plain Text
Duration : 2 h 2 min
Bit rate : 90 b/s
Count of elements : 1320
Stream size : 80.7 KiB (0%)
Title : Thai-SRT
Language : Thai
Default : No
Forced : No

Text #7
ID : 10
Format : VobSub
Muxing mode : zlib
Codec ID : S_VOBSUB
Codec ID/Info : Picture based subtitle format used on DVDs
Duration : 2 h 2 min
Bit rate : 8 106 b/s
Count of elements : 1320
Stream size : 7.09 MiB (0%)
Title : Thai-VOB
Language : Thai
Default : No
Forced : No

Text #8
ID : 11
Format : PGS
Muxing mode : zlib
Codec ID : S_HDMV/PGS
Codec ID/Info : Picture based subtitle format used on BDs/HD-DVDs
Duration : 2 h 2 min
Bit rate : 32.1 kb/s
Count of elements : 2640
Stream size : 28.1 MiB (1%)
Title : Thai PGS [White]
Language : Thai
Default : No
Forced : No

Text #9
ID : 12
Format : PGS
Muxing mode : zlib
Codec ID : S_HDMV/PGS
Codec ID/Info : Picture based subtitle format used on BDs/HD-DVDs
Duration : 2 h 2 min
Bit rate : 32.1 kb/s
Count of elements : 2640
Stream size : 28.1 MiB (1%)
Title : Thai PGS [Yellow]
Language : Thai
Default : No
Forced : No





Download: cornfile
http://cornfile.com/iwpifczcnpa5
Download: mekafile
http://www.mekafile.com/dl.php?f=WVda78bUQJpO