+ Reply to Thread
Results 1 to 2 of 2
  1. #1
    Administrators Duckload.us's Avatar
    Join Date
    Dec 2010
    Posts
    107,095
    Thanks
    9
    Thanked 111,553 Times in 51,849 Posts

    Question [ฝรั่ง] Hunter Killer (2018) [MKV HEVC 4K HDR10] [English : Dolby Atmos / Dolby TrueHD 7.1 Ch / HE-AAC 7.1 Ch] [พากย์ไทย : HE-AAC 5.1 Ch] [บรรยาย PGS : English / ไทย]



    Hunter Killer (2018) [MKV HEVC 4K HDR10]
    [English : Dolby Atmos / Dolby TrueHD 7.1 Ch / HE-AAC 7.1 Ch] [พากย์ไทย : HE-AAC 5.1 Ch] [บรรยาย PGS : English / ไทย]

    เตรียมพบกับอุบัติการณ์ความระทึกครั้งใหม่เมื่อกัปตั นเรือดำน้ำที่ไม่เคยออกศึกมาก่อนต้องร่วมมือกับหน่วย ซีลเพื่อช่วยเหลือประธานาธิบดีรัสเซียที่ถูกจับเป็นเ ชลย หลังจากเกิดการปฏิวัติโดยทหารที่มีผู้นำคืออดีตนายพล รัสเซียที่แปรพักตร์เพื่อหวังจะจุดชนวนสงครามโลกครั้ งที่สาม นำแสดงโดยตัวพ่อหนังแอคชั่น เจอร์ราร์ด บัตเลอร์ และผู้คว้ารางวัลออสการ์สาขานักแสดงนำชายยอดเยี่ยมปี ล่าสุดอย่าง แกรี่ โอลด์แมน !!!

    Code:
    General
    Complete name                  : Hunter Killer (2018) [HEVC 4K HDR10] [EN TrueHD 7.1 Atmos HE-AAC 7.1] [TH HE-AAC 5.1].mkv
    Format                         : Matroska
    Format version                 : Version 4
    File size                      : 11.3 GiB
    Duration                       : 2 h 1 min
    Overall bit rate mode          : Variable
    Overall bit rate               : 13.3 Mb/s
    Movie name                     : Hunter Killer (2018) [HEVC 4K HDR10] [English TrueHD 7.1 Atmos / HE-AAC 7.1] [Thai HE-AAC 5.1]
    Encoded date                   : UTC 2019-05-27 04:14:56
    Writing application            : mkvmerge v34.0.0 ('Sight and Seen') 64-bit
    Writing library                : libebml v1.3.7 + libmatroska v1.5.0
    
    Video
    ID                             : 1
    Format                         : HEVC
    Format/Info                    : High Efficiency Video Coding
    Commercial name                : HDR10
    Format profile                 : Main [email protected]@High
    Codec ID                       : V_MPEGH/ISO/HEVC
    Duration                       : 2 h 1 min
    Bit rate                       : 9 326 kb/s
    Width                          : 3 840 pixels
    Height                         : 2 160 pixels
    Display aspect ratio           : 16:9
    Frame rate mode                : Constant
    Frame rate                     : 23.976 (24000/1001) FPS
    Color space                    : YUV
    Chroma subsampling             : 4:2:0 (Type 2)
    Bit depth                      : 10 bits
    Bits/(Pixel*Frame)             : 0.047
    Stream size                    : 7.93 GiB (70%)
    Default                        : Yes
    Forced                         : No
    Color range                    : Limited
    Color primaries                : BT.2020
    Transfer characteristics       : PQ
    Matrix coefficients            : BT.2020 non-constant
    Mastering display color primar : Display P3
    Mastering display luminance    : min: 0.0001 cd/m2, max: 1000 cd/m2
    Maximum Content Light Level    : 1000 cd/m2
    Maximum Frame-Average Light Le : 471 cd/m2
    
    Audio #1
    ID                             : 2
    Format                         : MLP FBA 16-ch
    Format/Info                    : Meridian Lossless Packing FBA with 16-channel presentation
    Commercial name                : Dolby TrueHD with Dolby Atmos
    Codec ID                       : A_TRUEHD
    Duration                       : 2 h 1 min
    Bit rate mode                  : Variable
    Bit rate                       : 3 556 kb/s
    Maximum bit rate               : 6 573 kb/s
    Channel(s)                     : 8 channels
    Channel layout                 : L R C LFE Ls Rs Lb Rb
    Sampling rate                  : 48.0 kHz
    Frame rate                     : 1 200.000 FPS (40 SPF)
    Compression mode               : Lossless
    Stream size                    : 3.02 GiB (27%)
    Language                       : English
    Default                        : Yes
    Forced                         : No
    Number of dynamic objects      : 15
    Bed channel count              : 1 channel
    Bed channel configuration      : LFE
    
    Audio #2
    ID                             : 3
    Format                         : AAC LC SBR
    Format/Info                    : Advanced Audio Codec Low Complexity with Spectral Band Replication
    Commercial name                : HE-AAC
    Format settings                : Explicit
    Codec ID                       : A_AAC-2
    Duration                       : 2 h 1 min
    Bit rate                       : 192 kb/s
    Channel(s)                     : 8 channels
    Channel layout                 : C L R Ls Rs Lb Rb LFE
    Sampling rate                  : 48.0 kHz
    Frame rate                     : 23.438 FPS (2048 SPF)
    Compression mode               : Lossy
    Delay relative to video        : 36 ms
    Stream size                    : 166 MiB (1%)
    Language                       : English
    Default                        : No
    Forced                         : No
    
    Audio #3
    ID                             : 4
    Format                         : AAC LC SBR
    Format/Info                    : Advanced Audio Codec Low Complexity with Spectral Band Replication
    Commercial name                : HE-AAC
    Format settings                : Explicit
    Codec ID                       : A_AAC-2
    Duration                       : 2 h 1 min
    Bit rate                       : 138 kb/s
    Channel(s)                     : 6 channels
    Channel layout                 : C L R Ls Rs LFE
    Sampling rate                  : 48.0 kHz
    Frame rate                     : 23.438 FPS (2048 SPF)
    Compression mode               : Lossy
    Delay relative to video        : 36 ms
    Stream size                    : 120 MiB (1%)
    Language                       : Thai
    Default                        : No
    Forced                         : No
    
    Text #1
    ID                             : 5
    Format                         : PGS
    Muxing mode                    : zlib
    Codec ID                       : S_HDMV/PGS
    Codec ID/Info                  : Picture based subtitle format used on BDs/HD-DVDs
    Duration                       : 1 h 50 min
    Bit rate                       : 40.6 kb/s
    Count of elements              : 3002
    Stream size                    : 32.0 MiB (0%)
    Language                       : English
    Default                        : No
    Forced                         : No
    
    Text #2
    ID                             : 6
    Format                         : PGS
    Muxing mode                    : zlib
    Codec ID                       : S_HDMV/PGS
    Codec ID/Info                  : Picture based subtitle format used on BDs/HD-DVDs
    Duration                       : 1 h 52 min
    Bit rate                       : 31.2 kb/s
    Count of elements              : 2004
    Stream size                    : 25.1 MiB (0%)
    Language                       : Thai
    Default                        : No
    Forced                         : No
    
    Menu
    00:00:00.000                   : en:(01)00:00:00:000
    00:06:19.629                   : en:(02)00:06:19:629
    00:14:56.353                   : en:(03)00:14:56:353
    00:20:00.449                   : en:(04)00:20:00:449
    00:28:19.322                   : en:(05)00:28:19:322
    00:38:31.183                   : en:(06)00:38:31:183
    00:46:29.077                   : en:(07)00:46:29:077
    00:54:15.752                   : en:(08)00:54:15:752
    01:00:26.080                   : en:(09)01:00:26:080
    01:09:39.967                   : en:(10)01:09:39:967
    01:15:48.919                   : en:(11)01:15:48:919
    01:23:29.087                   : en:(12)01:23:29:087
    01:30:17.662                   : en:(13)01:30:17:662
    01:39:23.248                   : en:(14)01:39:23:248
    01:44:53.954                   : en:(15)01:44:53:954
    01:51:35.689                   : en:(16)01:51:35:689







    Download: cornfile
    http://cornfile.com/anah2brrvoaw
    Download: mekafile
    http://www.mekafile.com/dl.php?f=H04fa9bUTkFJ

  2. The Following User Says Thank You to Duckload.us For This Useful Post:

    Wesker_TOT (06-06-2019)

  3. #2
    Senior Member
    Join Date
    Dec 2013
    Posts
    1,802
    Thanks
    3,744
    Thanked 0 Times in 0 Posts
    ขอบคุณครับ...

+ Reply to Thread

Thread Information

Users Browsing this Thread

There are currently 1 users browsing this thread. (0 members and 1 guests)

     

Posting Permissions

  • You may not post new threads
  • You may not post replies
  • You may not post attachments
  • You may not edit your posts