+ Reply to Thread
Results 1 to 2 of 2
  1. #1
    Administrators Duckload.us's Avatar
    Join Date
    Dec 2010
    Posts
    104,571
    Thanks
    9
    Thanked 107,766 Times in 50,810 Posts

    Question [ฝรั่ง] Inferno (2016) [MKV HEVC 4K HDR10] [English : Dolby Atmos / Dolby TrueHD 7.1 Ch / HE-AAC 7.1 Ch] [พากย์ไทย : HE-AAC 5.1 Ch] [บรรยาย PGS : English / ไทย]



    Inferno (2016) [MKV HEVC 4K HDR10]
    [English : Dolby Atmos / Dolby TrueHD 7.1 Ch / HE-AAC 7.1 Ch] [พากย์ไทย : HE-AAC 5.1 Ch] [บรรยาย PGS : English / ไทย]

    เมื่อศาสตราจารย์โรเบิร์ต แลงก์ดอน ตื่นขึ้นกลางโรงพยาบาลในอิตาลีในภาวะสูญเสียความทรงจ ำบางส่วน
    แต่ถึงอย่างนั้นเขาได้รับความช่วยเหลือจากคุณหมอสาว เซียนนา บรูคส์ ที่ช่วยฟื้นความจำและร่วมออกผจญภัยเพื่อหยุดยั้งหายน ะอันร้ายแรง
    ซึ่งเชื่อมโยงกับวรรณกรรมสุดคลาสสิกเรื่อง อินเฟร์โน!!!


    Code:
    General
    Complete name                  : Inferno (2016) [HEVC 4K HDR10] [EN TrueHD 7.1 Atmos HE-AAC 7.1] [TH HE-AAC 5.1].mkv
    Format                         : Matroska
    Format version                 : Version 4
    File size                      : 12.7 GiB
    Duration                       : 2 h 1 min
    Overall bit rate mode          : Variable
    Overall bit rate               : 14.9 Mb/s
    Movie name                     : Inferno (2016) [HEVC 4K HDR10] [English TrueHD 7.1 Atmos / HE-AAC 7.1] [Thai HE-AAC 5.1]
    Encoded date                   : UTC 2019-06-02 03:22:55
    Writing application            : mkvmerge v34.0.0 ('Sight and Seen') 64-bit
    Writing library                : libebml v1.3.7 + libmatroska v1.5.0
    
    Video
    ID                             : 1
    Format                         : HEVC
    Format/Info                    : High Efficiency Video Coding
    Commercial name                : HDR10
    Format profile                 : Main [email protected]@High
    Codec ID                       : V_MPEGH/ISO/HEVC
    Duration                       : 2 h 1 min
    Bit rate                       : 9 556 kb/s
    Width                          : 3 840 pixels
    Height                         : 2 160 pixels
    Display aspect ratio           : 16:9
    Frame rate mode                : Constant
    Frame rate                     : 23.976 (24000/1001) FPS
    Color space                    : YUV
    Chroma subsampling             : 4:2:0 (Type 2)
    Bit depth                      : 10 bits
    Bits/(Pixel*Frame)             : 0.048
    Stream size                    : 8.11 GiB (64%)
    Default                        : Yes
    Forced                         : No
    Color range                    : Limited
    Color primaries                : BT.2020
    Transfer characteristics       : PQ
    Matrix coefficients            : BT.2020 non-constant
    Mastering display color primar : Display P3
    Mastering display luminance    : min: 0.0050 cd/m2, max: 4000 cd/m2
    Maximum Content Light Level    : 10000 cd/m2
    Maximum Frame-Average Light Le : 3647 cd/m2
    
    Audio #1
    ID                             : 2
    Format                         : MLP FBA 16-ch
    Format/Info                    : Meridian Lossless Packing FBA with 16-channel presentation
    Commercial name                : Dolby TrueHD with Dolby Atmos
    Codec ID                       : A_TRUEHD
    Duration                       : 2 h 1 min
    Bit rate mode                  : Variable
    Bit rate                       : 4 900 kb/s
    Maximum bit rate               : 8 316 kb/s
    Channel(s)                     : 8 channels
    Channel layout                 : L R C LFE Ls Rs Lb Rb
    Sampling rate                  : 48.0 kHz
    Frame rate                     : 1 200.000 FPS (40 SPF)
    Compression mode               : Lossless
    Stream size                    : 4.16 GiB (33%)
    Language                       : English
    Default                        : Yes
    Forced                         : No
    Number of dynamic objects      : 11
    Bed channel count              : 1 channel
    Bed channel configuration      : LFE
    
    Audio #2
    ID                             : 3
    Format                         : AAC LC SBR
    Format/Info                    : Advanced Audio Codec Low Complexity with Spectral Band Replication
    Commercial name                : HE-AAC
    Format settings                : Explicit
    Codec ID                       : A_AAC-2
    Duration                       : 2 h 1 min
    Bit rate                       : 192 kb/s
    Channel(s)                     : 8 channels
    Channel layout                 : C L R Ls Rs Lb Rb LFE
    Sampling rate                  : 48.0 kHz
    Frame rate                     : 23.438 FPS (2048 SPF)
    Compression mode               : Lossy
    Delay relative to video        : 36 ms
    Stream size                    : 169 MiB (1%)
    Language                       : English
    Default                        : No
    Forced                         : No
    
    Audio #3
    ID                             : 4
    Format                         : AAC LC SBR
    Format/Info                    : Advanced Audio Codec Low Complexity with Spectral Band Replication
    Commercial name                : HE-AAC
    Format settings                : Explicit
    Codec ID                       : A_AAC-2
    Duration                       : 2 h 1 min
    Bit rate                       : 144 kb/s
    Channel(s)                     : 6 channels
    Channel layout                 : C L R Ls Rs LFE
    Sampling rate                  : 48.0 kHz
    Frame rate                     : 23.438 FPS (2048 SPF)
    Compression mode               : Lossy
    Delay relative to video        : 36 ms
    Stream size                    : 128 MiB (1%)
    Language                       : Thai
    Default                        : No
    Forced                         : No
    
    Text #1
    ID                             : 5
    Format                         : PGS
    Muxing mode                    : zlib
    Codec ID                       : S_HDMV/PGS
    Codec ID/Info                  : Picture based subtitle format used on BDs/HD-DVDs
    Duration                       : 1 h 57 min
    Bit rate                       : 36.3 kb/s
    Count of elements              : 3332
    Stream size                    : 30.6 MiB (0%)
    Language                       : English
    Default                        : No
    Forced                         : No
    
    Text #2
    ID                             : 6
    Format                         : PGS
    Muxing mode                    : zlib
    Codec ID                       : S_HDMV/PGS
    Codec ID/Info                  : Picture based subtitle format used on BDs/HD-DVDs
    Duration                       : 2 h 0 min
    Bit rate                       : 30.6 kb/s
    Count of elements              : 2796
    Stream size                    : 26.4 MiB (0%)
    Language                       : Thai
    Default                        : No
    Forced                         : No
    
    Menu
    00:00:00.000                   : en:(01)00:00:00:000
    00:04:13.544                   : en:(02)00:04:13:544
    00:12:32.918                   : en:(03)00:12:32:918
    00:23:43.004                   : en:(04)00:23:43:004
    00:36:03.161                   : en:(05)00:36:03:161
    00:51:11.651                   : en:(06)00:51:11:651
    00:59:16.594                   : en:(07)00:59:16:594
    01:01:42.907                   : en:(08)01:01:42:907
    01:07:42.516                   : en:(09)01:07:42:516
    01:13:25.234                   : en:(10)01:13:25:234
    01:20:02.255                   : en:(11)01:20:02:255
    01:24:37.363                   : en:(12)01:24:37:363
    01:31:25.271                   : en:(13)01:31:25:271
    01:35:42.111                   : en:(14)01:35:42:111
    01:40:51.128                   : en:(15)01:40:51:128
    01:52:27.907                   : en:(16)01:52:27:907







    Download: cornfile
    http://cornfile.com/omgfq8qz990c
    Download: mekafile
    http://www.mekafile.com/dl.php?f=Nz080abUTkUp

  2. The Following User Says Thank You to Duckload.us For This Useful Post:

    Wesker_TOT (06-06-2019)

  3. #2
    Senior Member
    Join Date
    Dec 2013
    Posts
    1,672
    Thanks
    3,629
    Thanked 0 Times in 0 Posts
    ขอบคุณครับ...

+ Reply to Thread

Thread Information

Users Browsing this Thread

There are currently 1 users browsing this thread. (0 members and 1 guests)

     

Posting Permissions

  • You may not post new threads
  • You may not post replies
  • You may not post attachments
  • You may not edit your posts