+ Reply to Thread
Results 1 to 2 of 2
  1. #1
    Administrators Duckload.us's Avatar
    Join Date
    Dec 2010
    Posts
    107,748
    Thanks
    7
    Thanked 112,521 Times in 52,094 Posts

    Question [ฝรั่ง]- X-Men Collection (2000-2016) เอ็กซ์เมน 6 ภาค [* 1080p.BluRay.x264.AC3.THM5.1 *] [พากย์ไทย 5.1 + เสียงอังกฤษ 5.1] [บรรยายไทย + อังกฤษ]





    Quote:
    หมายเหตุ : ขอขอบคุณเสียงไทยและซับไทยจากคุณจิ้งจอกเก้าหาง และคุณเจน NongZEZA~



    Quote:
    X-Men (2000) ศึกมนุษย์พลังเหนือโลก
    เรื่องย่อ : ถือกำเนิดมาบนโลกที่เต็มไปด้วยอคติ พวกเขาคือเเหล่ามนุษย์ที่เกิดมาพร้อมพลังพิเศษและอัน ตรายอันเป็นผลจากการเปลี่ยนแปลงทางพันธุกรรม
    อาทิ ไซคลอปส์ เจ้าของดวงตามหาประลัยที่สามารถฉายลำแสงพิฆาตออกมา, สตอร์ม หญิงสาวผู้ควบคุมลมฟ้าได้ดังใจนึก,
    โร้ก ผู้สามารถดูดพลังจากทุกคนที่เธอสัมผัส แต่ด้วยการดูแลของศาสตราจารย์ซาเวียร์ (แพทริค สจ๊วร์ต) มนุษย์พันธุ์พิเศษเหล่านี้เรียนรู้
    ที่จะควบคุมพลังเพื่อใช้ให้เป็นประโยชน์แก่มวลมนุษยช าติ เวลานี้พวกเขาต้องคอยปกป้องประชาชนที่หวาดกลัว
    ต้องต่อสู้กับแม็กนีโต้ (เอียน แม็คเคลเลน) ผู้เชื่อเสมอว่ามนุษย์ธรรมดากับมนุษย์พลังพิเศษไม่มี วันอยู่รวมกันได้!!!



    *ดู INFO Report คลิ๊ก!*Quote:

    X-Men (2000) ศึกมนุษย์พลังเหนือโลก
    Video
    ID : 1
    Format : AVC
    Format/Info : Advanced Video Codec
    Format profile : [email protected]
    Format settings, CABAC : Yes
    Format settings, RefFrames : 4 frames
    Codec ID : V_MPEG4/ISO/AVC
    Duration : 1 h 44 min
    Bit rate : 2 500 kb/s
    Width : 1 920 pixels
    Height : 800 pixels
    Display aspect ratio : 2.40:1
    Frame rate mode : Constant
    Frame rate : 23.976 (23976/1000) FPS
    Color space : YUV
    Chroma subsampling : 4:2:0
    Bit depth : 8 bits
    Scan type : Progressive
    Bits/(Pixel*Frame) : 0.068
    Stream size : 1.82 GiB (69%)
    Title : X-Men.2000.REMASTERED.1080p.BluRay.x264.AC3.THM5.1_H eRMineZ
    Writing library : x264 core 152 r2851M ba24899
    Encoding settings : cabac=1 / ref=4 / deblock=1:-1:-1 / analyse=0x3:0x113 / me=umh / subme=9 / psy=1 / psy_rd=1.00:0.15 / mixed_ref=1 / me_range=24 / chroma_me=1 / trellis=2 / 8x8dct=1 / cqm=0 / deadzone=21,11 / fast_pskip=1 / chroma_qp_offset=-3 / threads=32 / lookahead_threads=4 / sliced_threads=0 / nr=0 / decimate=1 / interlaced=0 / bluray_compat=0 / constrained_intra=0 / bframes=3 / b_pyramid=2 / b_adapt=2 / b_bias=0 / direct=3 / weightb=1 / open_gop=0 / weightp=2 / keyint=250 / keyint_min=25 / scenecut=40 / intra_refresh=0 / rc_lookahead=50 / rc=2pass / mbtree=1 / bitrate=2500 / ratetol=1.0 / qcomp=0.60 / qpmin=0 / qpmax=69 / qpstep=4 / cplxblur=20.0 / qblur=0.5 / vbv_maxrate=31250 / vbv_bufsize=31250 / nal_hrd=none / filler=0 / ip_ratio=1.40 / aq=3:1.00
    Default : Yes
    Forced : No

    Audio #1
    ID : 2
    Format : AC-3
    Format/Info : Audio Coding 3
    Format settings, Endianness : Big
    Codec ID : A_AC3
    Duration : 1 h 44 min
    Bit rate mode : Constant
    Bit rate : 448 kb/s
    Channel(s) : 6 channels
    Channel positions : Front: L C R, Side: L R, LFE
    Sampling rate : 48.0 kHz
    Frame rate : 31.250 FPS (1536 SPF)
    Bit depth : 16 bits
    Compression mode : Lossy
    Stream size : 334 MiB (12%)
    Title : Thai BluRay Master 5.1 @448 Kbps
    Language : Thai
    Service kind : Complete Main
    Default : Yes
    Forced : Yes

    Audio #2
    ID : 3
    Format : AC-3
    Format/Info : Audio Coding 3
    Format settings, Endianness : Big
    Codec ID : A_AC3
    Duration : 1 h 44 min
    Bit rate mode : Constant
    Bit rate : 640 kb/s
    Channel(s) : 6 channels
    Channel positions : Front: L C R, Side: L R, LFE
    Sampling rate : 48.0 kHz
    Frame rate : 31.250 FPS (1536 SPF)
    Bit depth : 16 bits
    Compression mode : Lossy
    Stream size : 478 MiB (18%)
    Title : English 5.1 @640 Kbps
    Language : English
    Service kind : Complete Main
    Default : No
    Forced : No

    Text #1
    ID : 4
    Format : VobSub
    Muxing mode : zlib
    Codec ID : S_VOBSUB
    Codec ID/Info : Picture based subtitle format used on DVDs
    Duration : 1 h 34 min
    Bit rate : 1 866 b/s
    Count of elements : 804
    Stream size : 1.26 MiB (0%)
    Title : Thai 480p
    Language : Thai
    Default : No
    Forced : No

    Text #2
    ID : 5
    Format : VobSub
    Muxing mode : zlib
    Codec ID : S_VOBSUB
    Codec ID/Info : Picture based subtitle format used on DVDs
    Duration : 1 h 34 min
    Bit rate : 5 115 b/s
    Count of elements : 804
    Stream size : 3.45 MiB (0%)
    Title : Thai 1080p BluRay Master
    Language : Thai
    Default : Yes
    Forced : Yes

    Text #3
    ID : 6
    Format : PGS
    Muxing mode : zlib
    Codec ID : S_HDMV/PGS
    Codec ID/Info : Picture based subtitle format used on BDs/HD-DVDs
    Duration : 1 h 34 min
    Bit rate : 18.1 kb/s
    Count of elements : 1614
    Stream size : 12.2 MiB (0%)
    Title : Thai PGS BluRay Master
    Language : Thai
    Default : No
    Forced : No

    Text #4
    ID : 7
    Format : PGS
    Muxing mode : zlib
    Codec ID : S_HDMV/PGS
    Codec ID/Info : Picture based subtitle format used on BDs/HD-DVDs
    Duration : 1 h 34 min
    Bit rate : 37.5 kb/s
    Count of elements : 1494
    Stream size : 25.3 MiB (1%)
    Title : English PGS
    Language : English
    Default : No
    Forced : No



    Quote:







    Quote:
    X2: X-Men United (2003) ศึกมนุษย์พลังเหนือโลก 2
    เรื่องย่อ : ภายหลังความเกลียดชังและความไม่ไว้ใจระหว่างคนทั่วไป กับมนุษย์กลายพันธุ์ ส่อเค้าเป็นปัญหารุนแรง
    มนุษย์กลายพันธุ์คนหนึ่งได้บุกทำร้ายประธานาธิบดีถึง ในทำเนียบขาว ส่งผลให้นายพลวิลเลี่ยม สไตรเกอร์ (ไบรอัน ค็อกซ์)
    ผู้รอคอยโอกาสเหมาะ ประกาศสงครามกับมนุษย์กลายพันธุ์ มันคือสงครามที่มีเพียงเผ่าพันธุ์เดียวเป็นผู้ชนะ ศาสตราจารย์เอ็กซ์ (แพทริค สจ๊วร์ต)
    วูลฟ์เวอรีน (ฮิวจ์ แจ็คแมน) สตอร์ม (ฮัลลี่ เบอร์รี่) และเหล่า X-เม็นคนอื่นๆ ต้องผนึกกำลังกับแม็กนีโต (เอียน แม็คเคลเลน) ศัตรูคู่ปรับเก่าของพวกเขา
    เพื่อป้องกันสงครามครั้งยิ่งใหญ่ ที่อาจทำลายทุกคนบนโลกนี้ สัมผัสตะลึงตากับสเปเชี่ยลเอฟเฟ็กต์สุดยอด ฉากแอ็คชั่นสุดมันส์
    และเรื่องราวหักมุมที่คุณต้องลุ้นตลอดเวลาแห่งการชม โดยฝีมือของไบรอัน ซิงเกอร์ ผู้กำกับคนเดิมที่ได้รับการยกย่องจากนักวิจารณ์
    และแฟน X-เม็น ทั่วโลก!!!



    *ดู INFO Report คลิ๊ก!*Quote:
    X2: X-Men United (2003) ศึกมนุษย์พลังเหนือโลก 2
    Video
    ID : 1
    Format : AVC
    Format/Info : Advanced Video Codec
    Format profile : [email protected]
    Format settings, CABAC : Yes
    Format settings, RefFrames : 4 frames
    Codec ID : V_MPEG4/ISO/AVC
    Duration : 2 h 13 min
    Bit rate : 2 500 kb/s
    Width : 1 920 pixels
    Height : 800 pixels
    Display aspect ratio : 2.40:1
    Frame rate mode : Constant
    Frame rate : 23.976 (23976/1000) FPS
    Color space : YUV
    Chroma subsampling : 4:2:0
    Bit depth : 8 bits
    Scan type : Progressive
    Bits/(Pixel*Frame) : 0.068
    Stream size : 2.33 GiB (70%)
    Title : X2.2003.REMASTERED.1080p.BluRay.x264.AC3.THM5.1_He RMineZ
    Writing library : x264 core 152 r2851M ba24899
    Encoding settings : cabac=1 / ref=4 / deblock=1:-1:-1 / analyse=0x3:0x113 / me=umh / subme=9 / psy=1 / psy_rd=1.00:0.15 / mixed_ref=1 / me_range=24 / chroma_me=1 / trellis=2 / 8x8dct=1 / cqm=0 / deadzone=21,11 / fast_pskip=1 / chroma_qp_offset=-3 / threads=32 / lookahead_threads=4 / sliced_threads=0 / nr=0 / decimate=1 / interlaced=0 / bluray_compat=0 / constrained_intra=0 / bframes=3 / b_pyramid=2 / b_adapt=2 / b_bias=0 / direct=3 / weightb=1 / open_gop=0 / weightp=2 / keyint=250 / keyint_min=25 / scenecut=40 / intra_refresh=0 / rc_lookahead=50 / rc=2pass / mbtree=1 / bitrate=2500 / ratetol=1.0 / qcomp=0.60 / qpmin=0 / qpmax=69 / qpstep=4 / cplxblur=20.0 / qblur=0.5 / vbv_maxrate=31250 / vbv_bufsize=31250 / nal_hrd=none / filler=0 / ip_ratio=1.40 / aq=3:1.00
    Default : Yes
    Forced : No

    Audio #1
    ID : 2
    Format : AC-3
    Format/Info : Audio Coding 3
    Format settings, Endianness : Big
    Codec ID : A_AC3
    Duration : 2 h 13 min
    Bit rate mode : Constant
    Bit rate : 384 kb/s
    Channel(s) : 6 channels
    Channel positions : Front: L C R, Side: L R, LFE
    Sampling rate : 48.0 kHz
    Frame rate : 31.250 FPS (1536 SPF)
    Bit depth : 16 bits
    Compression mode : Lossy
    Stream size : 367 MiB (11%)
    Title : Thai BluRay Master 5.1 @384 Kbps
    Language : Thai
    Service kind : Complete Main
    Default : Yes
    Forced : No

    Audio #2
    ID : 3
    Format : AC-3
    Format/Info : Audio Coding 3
    Format settings, Endianness : Big
    Codec ID : A_AC3
    Duration : 2 h 13 min
    Bit rate mode : Constant
    Bit rate : 640 kb/s
    Channel(s) : 6 channels
    Channel positions : Front: L C R, Side: L R, LFE
    Sampling rate : 48.0 kHz
    Frame rate : 31.250 FPS (1536 SPF)
    Bit depth : 16 bits
    Compression mode : Lossy
    Stream size : 612 MiB (18%)
    Title : English 5.1 @640 Kbps
    Language : English
    Service kind : Complete Main
    Default : No
    Forced : No

    Text #1
    ID : 4
    Format : VobSub
    Muxing mode : zlib
    Codec ID : S_VOBSUB
    Codec ID/Info : Picture based subtitle format used on DVDs
    Duration : 2 h 4 min
    Bit rate : 1 622 b/s
    Count of elements : 1174
    Stream size : 1.44 MiB (0%)
    Title : Thai 480p
    Language : Thai
    Default : No
    Forced : No

    Text #2
    ID : 5
    Format : VobSub
    Muxing mode : zlib
    Codec ID : S_VOBSUB
    Codec ID/Info : Picture based subtitle format used on DVDs
    Duration : 2 h 4 min
    Bit rate : 5 775 b/s
    Count of elements : 1174
    Stream size : 5.14 MiB (0%)
    Title : Thai 1080p BluRay Master
    Language : Thai
    Default : Yes
    Forced : No

    Text #3
    ID : 6
    Format : PGS
    Muxing mode : zlib
    Codec ID : S_HDMV/PGS
    Codec ID/Info : Picture based subtitle format used on BDs/HD-DVDs
    Duration : 2 h 4 min
    Bit rate : 20.3 kb/s
    Count of elements : 2348
    Stream size : 18.0 MiB (1%)
    Title : Thai PGS BluRay Master
    Language : Thai
    Default : No
    Forced : No

    Text #4
    ID : 7
    Format : PGS
    Muxing mode : zlib
    Codec ID : S_HDMV/PGS
    Codec ID/Info : Picture based subtitle format used on BDs/HD-DVDs
    Duration : 2 h 4 min
    Bit rate : 44.3 kb/s
    Count of elements : 2578
    Stream size : 39.4 MiB (1%)
    Title : English PGS
    Language : English
    Default : No
    Forced : No



    Quote:







    Quote:
    X-Men : The Last Stand (2006) รวมพลังประจัญบาน
    เรื่องย่อ : เป็นครั้งแรกที่เหล่ามนุษย์กลายพันธุ์ อาทิ วูลฟ์เวอรีน (ฮิวจ์ แจ๊คแมน) สตอร์ม (ฮัลลี่ เบอร์รี่) ชาร์ลส์ เซเวียร์ (แพตทริค สจ๊วต)
    แม็กนีโต (เอียน แม็กเคลเล็น) จีน เกรย์ (เฟ็มเก้ เจนเซ่น) ไซคลอพส์ (เจมส์ มาร์สเด็น) มิสทีก (รีเบ็กก้า โรมิน) โร้ก (แอนนา พาควิน)
    ไอซ์แมน (ชอว์น แอชมอร์) ไพโร (แอรอน สแตนฟอร์ด) และโคลอสซัส(แดเนียล คุดมอร์)
    จะได้เลือกว่า หากพวกเขายังคงรักษาคุณลักษณะพิเศษเฉพาะตัวไว้ ก็ต้องแยกตัวออกไปใช้ชีวิตเป็นเอกเทศ ไม่ข้องเกี่ยวกับสังคมคนธรรมดา
    หรือมิฉะนั้น พวกเขาก็ต้องยอมลบล้างพลังพิเศษของพวกเขา แล้วใช้ชีวิตเยี่ยงปุถุชน ส่วนผู้นำกลุ่มมนุษย์กลายพันธุ์ที่คิดต่างกันคนละขั้ ว
    คือเชาร์ลส์ เซเวียร์ ซึ่งสนับสนุนการทนใช้ชีวิตอยู่ร่วมสังคมเดียวกัน กับ แม็กนีโต ที่เชื่อว่าผู้ที่แข็งแกร่งที่สุดเท่านั้น
    ถึงจะสมควรใช้ชีวิตอยู่ได้ ตัดสินใจเข้าห้ำหั่นประลองฝีมือกัน หมายใช้สงครามยุติความขัดแย้งทั้งปวง!!!



    *ดู INFO Report คลิ๊ก!*Quote:

    X-Men : The Last Stand (2006) รวมพลังประจัญบาน
    Video
    ID : 1
    Format : AVC
    Format/Info : Advanced Video Codec
    Format profile : [email protected]
    Format settings, CABAC : Yes
    Format settings, RefFrames : 4 frames
    Codec ID : V_MPEG4/ISO/AVC
    Duration : 1 h 44 min
    Bit rate : 2 500 kb/s
    Width : 1 920 pixels
    Height : 800 pixels
    Display aspect ratio : 2.40:1
    Frame rate mode : Constant
    Frame rate : 23.976 (23976/1000) FPS
    Color space : YUV
    Chroma subsampling : 4:2:0
    Bit depth : 8 bits
    Scan type : Progressive
    Bits/(Pixel*Frame) : 0.068
    Stream size : 1.82 GiB (66%)
    Title : X-Men.The.Last.Stand.2006.REMASTERED.1080p.BluRay.x2 64.AC3.THM5.1_HeRMineZ
    Writing library : x264 core 152 r2851M ba24899
    Encoding settings : cabac=1 / ref=4 / deblock=1:-1:-1 / analyse=0x3:0x113 / me=umh / subme=9 / psy=1 / psy_rd=1.00:0.15 / mixed_ref=1 / me_range=24 / chroma_me=1 / trellis=2 / 8x8dct=1 / cqm=0 / deadzone=21,11 / fast_pskip=1 / chroma_qp_offset=-3 / threads=32 / lookahead_threads=4 / sliced_threads=0 / nr=0 / decimate=1 / interlaced=0 / bluray_compat=0 / constrained_intra=0 / bframes=3 / b_pyramid=2 / b_adapt=2 / b_bias=0 / direct=3 / weightb=1 / open_gop=0 / weightp=2 / keyint=250 / keyint_min=25 / scenecut=40 / intra_refresh=0 / rc_lookahead=50 / rc=2pass / mbtree=1 / bitrate=2500 / ratetol=1.0 / qcomp=0.60 / qpmin=0 / qpmax=69 / qpstep=4 / cplxblur=20.0 / qblur=0.5 / vbv_maxrate=31250 / vbv_bufsize=31250 / nal_hrd=none / filler=0 / ip_ratio=1.40 / aq=3:1.00
    Default : Yes
    Forced : No

    Audio #1
    ID : 2
    Format : AC-3
    Format/Info : Audio Coding 3
    Format settings, Endianness : Big
    Codec ID : A_AC3
    Duration : 1 h 44 min
    Bit rate mode : Constant
    Bit rate : 640 kb/s
    Channel(s) : 6 channels
    Channel positions : Front: L C R, Side: L R, LFE
    Sampling rate : 48.0 kHz
    Frame rate : 31.250 FPS (1536 SPF)
    Bit depth : 16 bits
    Compression mode : Lossy
    Stream size : 476 MiB (17%)
    Title : Thai BluRay Master 5.1 @640 Kbps
    Language : Thai
    Service kind : Complete Main
    Default : Yes
    Forced : No

    Audio #2
    ID : 3
    Format : AC-3
    Format/Info : Audio Coding 3
    Format settings, Endianness : Big
    Codec ID : A_AC3
    Duration : 1 h 44 min
    Bit rate mode : Constant
    Bit rate : 640 kb/s
    Channel(s) : 6 channels
    Channel positions : Front: L C R, Side: L R, LFE
    Sampling rate : 48.0 kHz
    Frame rate : 31.250 FPS (1536 SPF)
    Bit depth : 16 bits
    Compression mode : Lossy
    Stream size : 476 MiB (17%)
    Title : English 5.1 @640 Kbps
    Language : English
    Service kind : Complete Main
    Default : No
    Forced : No

    Text #1
    ID : 4
    Format : VobSub
    Muxing mode : zlib
    Codec ID : S_VOBSUB
    Codec ID/Info : Picture based subtitle format used on DVDs
    Duration : 1 h 42 min
    Bit rate : 1 527 b/s
    Count of elements : 888
    Stream size : 1.12 MiB (0%)
    Title : Thai 480p
    Language : Thai
    Default : No
    Forced : No

    Text #2
    ID : 5
    Format : VobSub
    Muxing mode : zlib
    Codec ID : S_VOBSUB
    Codec ID/Info : Picture based subtitle format used on DVDs
    Duration : 1 h 42 min
    Bit rate : 5 450 b/s
    Count of elements : 888
    Stream size : 4.01 MiB (0%)
    Title : Thai 1080p BluRay Master
    Language : Thai
    Default : Yes
    Forced : No

    Text #3
    ID : 6
    Format : PGS
    Muxing mode : zlib
    Codec ID : S_HDMV/PGS
    Codec ID/Info : Picture based subtitle format used on BDs/HD-DVDs
    Duration : 1 h 42 min
    Bit rate : 19.1 kb/s
    Count of elements : 1776
    Stream size : 14.1 MiB (0%)
    Title : Thai PGS BluRay Master
    Language : Thai
    Default : No
    Forced : No

    Text #4
    ID : 7
    Format : VobSub
    Muxing mode : zlib
    Codec ID : S_VOBSUB
    Codec ID/Info : Picture based subtitle format used on DVDs
    Duration : 1 h 43 min
    Bit rate : 2 037 b/s
    Count of elements : 872
    Stream size : 1.51 MiB (0%)
    Title : English
    Language : English
    Default : No
    Forced : No



    Quote:







    Quote:
    X-Men : First Class (2011) เอ็กซ์เมน รุ่น 1
    เรื่องย่อ : เรื่องราวของจุดกำเนิดของเรื่องราวอันยาวนานของ X-Men เกี่ยวกับประวัติความเป็นมาอันเป็นความลับของโลก
    ก่อนที่บรรดามนุษย์กลายพันธุ์จะกำเนิดขึ้นมาบนโลกนี้ และเรื่องราวก่อนที่ Charles Xavier และ Erik Lensherr จะกลายมาเป็นชื่อ Professor X
    และ Magneto ซึ่งเป็นเรื่องราวสมัยที่ทั้งคู่ยังไม่มาเป็นศัตรูคู ่อาฆาตกัน และเป็นเพื่อนสนิทกัน รวมถึงเป็นสองคนแรกที่รับรู้
    และสามารถควบคุมพลังการกลายพันธุ์ของตนเองได้ และยังทำงานร่วมกันกับมนุษย์กลายพันธุ์คนอื่นในการกำ จัดศัตรูอย่าง Armageddon อีกด้วย
    และรวมถึงการเปิดเผยสาเหตุที่ทำให้ทั้ง Professor X และ Magneto เกิดความบาดหมางและกลายเป็นศัตรูกันจนทุกวันนี้!!!



    *ดู INFO Report คลิ๊ก!*Quote:

    X-Men : First Class (2011) เอ็กซ์เมน รุ่น 1
    Video
    ID : 1
    Format : AVC
    Format/Info : Advanced Video Codec
    Format profile : [email protected]
    Format settings, CABAC : Yes
    Format settings, RefFrames : 4 frames
    Codec ID : V_MPEG4/ISO/AVC
    Duration : 2 h 11 min
    Bit rate : 2 500 kb/s
    Width : 1 920 pixels
    Height : 816 pixels
    Display aspect ratio : 2.35:1
    Frame rate mode : Constant
    Frame rate : 23.976 (23976/1000) FPS
    Color space : YUV
    Chroma subsampling : 4:2:0
    Bit depth : 8 bits
    Scan type : Progressive
    Bits/(Pixel*Frame) : 0.067
    Stream size : 2.30 GiB (69%)
    Title : X-Men.First.Class.2011.1080p.BluRay.x264.AC3.THM5.1_ HeRMineZ
    Writing library : x264 core 152 r2851M ba24899
    Encoding settings : cabac=1 / ref=4 / deblock=1:-1:-1 / analyse=0x3:0x113 / me=umh / subme=9 / psy=1 / psy_rd=1.00:0.15 / mixed_ref=1 / me_range=24 / chroma_me=1 / trellis=2 / 8x8dct=1 / cqm=0 / deadzone=21,11 / fast_pskip=1 / chroma_qp_offset=-3 / threads=32 / lookahead_threads=4 / sliced_threads=0 / nr=0 / decimate=1 / interlaced=0 / bluray_compat=0 / constrained_intra=0 / bframes=3 / b_pyramid=2 / b_adapt=2 / b_bias=0 / direct=3 / weightb=1 / open_gop=0 / weightp=2 / keyint=250 / keyint_min=25 / scenecut=40 / intra_refresh=0 / rc_lookahead=50 / rc=2pass / mbtree=1 / bitrate=2500 / ratetol=1.0 / qcomp=0.60 / qpmin=0 / qpmax=69 / qpstep=4 / cplxblur=20.0 / qblur=0.5 / vbv_maxrate=31250 / vbv_bufsize=31250 / nal_hrd=none / filler=0 / ip_ratio=1.40 / aq=3:1.00
    Default : Yes
    Forced : No

    Audio #1
    ID : 2
    Format : AC-3
    Format/Info : Audio Coding 3
    Format settings, Endianness : Big
    Codec ID : A_AC3
    Duration : 2 h 11 min
    Bit rate mode : Constant
    Bit rate : 448 kb/s
    Channel(s) : 6 channels
    Channel positions : Front: L C R, Side: L R, LFE
    Sampling rate : 48.0 kHz
    Frame rate : 31.250 FPS (1536 SPF)
    Bit depth : 16 bits
    Compression mode : Lossy
    Stream size : 422 MiB (12%)
    Title : Thai BluRay Master 5.1 @448 Kbps
    Language : Thai
    Service kind : Complete Main
    Default : Yes
    Forced : Yes

    Audio #2
    ID : 3
    Format : AC-3
    Format/Info : Audio Coding 3
    Format settings, Endianness : Big
    Codec ID : A_AC3
    Duration : 2 h 11 min
    Bit rate mode : Constant
    Bit rate : 640 kb/s
    Channel(s) : 6 channels
    Channel positions : Front: L C R, Side: L R, LFE
    Sampling rate : 48.0 kHz
    Frame rate : 31.250 FPS (1536 SPF)
    Bit depth : 16 bits
    Compression mode : Lossy
    Stream size : 603 MiB (18%)
    Title : English 5.1 @640 Kbps
    Language : English
    Service kind : Complete Main
    Default : No
    Forced : No

    Text #1
    ID : 4
    Format : VobSub
    Muxing mode : zlib
    Codec ID : S_VOBSUB
    Codec ID/Info : Picture based subtitle format used on DVDs
    Duration : 2 h 7 min
    Bit rate : 693 b/s
    Count of elements : 153
    Stream size : 646 KiB (0%)
    Title : Thai For Non-English Part Only
    Language : Thai
    Default : Yes
    Forced : Yes

    Text #2
    ID : 5
    Format : VobSub
    Muxing mode : zlib
    Codec ID : S_VOBSUB
    Codec ID/Info : Picture based subtitle format used on DVDs
    Duration : 2 h 10 min
    Bit rate : 2 202 b/s
    Count of elements : 1439
    Stream size : 2.06 MiB (0%)
    Title : Thai 480p
    Language : Thai
    Default : No
    Forced : No

    Text #3
    ID : 6
    Format : VobSub
    Muxing mode : zlib
    Codec ID : S_VOBSUB
    Codec ID/Info : Picture based subtitle format used on DVDs
    Duration : 2 h 10 min
    Bit rate : 3 271 b/s
    Count of elements : 1439
    Stream size : 3.06 MiB (0%)
    Title : Thai 720p
    Language : Thai
    Default : No
    Forced : No

    Text #4
    ID : 7
    Format : VobSub
    Muxing mode : zlib
    Codec ID : S_VOBSUB
    Codec ID/Info : Picture based subtitle format used on DVDs
    Duration : 2 h 10 min
    Bit rate : 5 826 b/s
    Count of elements : 1439
    Stream size : 5.45 MiB (0%)
    Title : Thai 1080p BluRay Master
    Language : Thai
    Default : No
    Forced : No

    Text #5
    ID : 8
    Format : VobSub
    Muxing mode : zlib
    Codec ID : S_VOBSUB
    Codec ID/Info : Picture based subtitle format used on DVDs
    Duration : 2 h 10 min
    Bit rate : 5 826 b/s
    Count of elements : 1439
    Stream size : 5.45 MiB (0%)
    Title : Thai 1080p Out
    Language : Thai
    Default : No
    Forced : No

    Text #6
    ID : 9
    Format : PGS
    Muxing mode : zlib
    Codec ID : S_HDMV/PGS
    Codec ID/Info : Picture based subtitle format used on BDs/HD-DVDs
    Duration : 2 h 10 min
    Bit rate : 23.4 kb/s
    Count of elements : 2878
    Stream size : 21.9 MiB (1%)
    Title : Thai PGS BluRay Master
    Language : Thai
    Default : No
    Forced : No

    Text #7
    ID : 10
    Format : VobSub
    Muxing mode : zlib
    Codec ID : S_VOBSUB
    Codec ID/Info : Picture based subtitle format used on DVDs
    Duration : 2 h 10 min
    Bit rate : 7 672 b/s
    Count of elements : 1411
    Stream size : 7.15 MiB (0%)
    Title : English
    Language : English
    Default : No
    Forced : No



    Quote:







    Quote:
    X-Men: Days Of Future Past (The Rouge Cut) (2014) X-เม็น: สงครามวันพิฆาตกู้อนาคต (ฉบับพิเศษ)
    เรื่องย่อ : ในการต่อสู้กับสงครามครั้งยิ่งใหญ่เพื่อหาทางรอดจากก องทัพหุ่นยนต์เซนตินัล ที่มีหน้าที่ตามล่าและกำจัดมนุษย์กลายพันธุ์ให้หมดสิ ้น
    เหล่าพลพรรค X-เม็นจากไตรภาคแรก จึงต้องรวมพลังกับตัวของพวกเขาเองเมื่อครั้งยังหนุ่ม สาว ในการต่อสู้ที่จะต้องเปลี่ยนแปลงอดีต
    เพื่อรักษาอนาคตของเราทุกคน นี่คือ X-Men: Days Of Future Past ฉบับตัดต่อใหม่โดยผู้กำกับ
    โดยเน้นบทบาทตัวละคร โร้ค (มิวแทนต์สาวที่สามารถดูดพลังของคนอื่นได้ รับบทโดย แอนนา พาควิน) ให้มากขึ้น
    พร้อมเนื้อหาใหม่และเบื้องหลังพิเศษมากมาย!!!



    *ดู INFO Report คลิ๊ก!*Quote:

    X-Men: Days Of Future Past (The Rouge Cut) (2014) X-เม็น: สงครามวันพิฆาตกู้อนาคต (ฉบับพิเศษ)
    Video
    ID : 1
    Format : AVC
    Format/Info : Advanced Video Codec
    Format profile : [email protected]
    Format settings, CABAC : Yes
    Format settings, RefFrames : 4 frames
    Codec ID : V_MPEG4/ISO/AVC
    Duration : 2 h 28 min
    Bit rate : 2 500 kb/s
    Width : 1 920 pixels
    Height : 800 pixels
    Display aspect ratio : 2.40:1
    Frame rate mode : Constant
    Frame rate : 23.976 (24000/1001) FPS
    Original frame rate : 23.976 (23976/1000) FPS
    Color space : YUV
    Chroma subsampling : 4:2:0
    Bit depth : 8 bits
    Scan type : Progressive
    Bits/(Pixel*Frame) : 0.068
    Stream size : 2.60 GiB (70%)
    Title : X-Men.Days.of.Future.Past.2014.THE.ROGUE.CUT.1080p.B luRay.x264.AC3.THM5.1_HeRMineZ
    Writing library : x264 core 152 r2851M ba24899
    Encoding settings : cabac=1 / ref=4 / deblock=1:-1:-1 / analyse=0x3:0x113 / me=umh / subme=9 / psy=1 / psy_rd=1.00:0.15 / mixed_ref=1 / me_range=24 / chroma_me=1 / trellis=2 / 8x8dct=1 / cqm=0 / deadzone=21,11 / fast_pskip=1 / chroma_qp_offset=-3 / threads=32 / lookahead_threads=4 / sliced_threads=0 / nr=0 / decimate=1 / interlaced=0 / bluray_compat=0 / constrained_intra=0 / bframes=3 / b_pyramid=2 / b_adapt=2 / b_bias=0 / direct=3 / weightb=1 / open_gop=0 / weightp=2 / keyint=250 / keyint_min=25 / scenecut=40 / intra_refresh=0 / rc_lookahead=50 / rc=2pass / mbtree=1 / bitrate=2500 / ratetol=1.0 / qcomp=0.60 / qpmin=0 / qpmax=69 / qpstep=4 / cplxblur=20.0 / qblur=0.5 / vbv_maxrate=31250 / vbv_bufsize=31250 / nal_hrd=none / filler=0 / ip_ratio=1.40 / aq=3:1.00
    Default : Yes
    Forced : No

    Audio #1
    ID : 2
    Format : AC-3
    Format/Info : Audio Coding 3
    Format settings, Endianness : Big
    Codec ID : A_AC3
    Duration : 2 h 28 min
    Bit rate mode : Constant
    Bit rate : 384 kb/s
    Channel(s) : 6 channels
    Channel positions : Front: L C R, Side: L R, LFE
    Sampling rate : 48.0 kHz
    Frame rate : 31.250 FPS (1536 SPF)
    Bit depth : 16 bits
    Compression mode : Lossy
    Stream size : 409 MiB (11%)
    Title : Thai DVD Master 5.1 @384 Kbps
    Language : Thai
    Service kind : Complete Main
    Default : Yes
    Forced : Yes

    Audio #2
    ID : 3
    Format : AC-3
    Format/Info : Audio Coding 3
    Format settings, Endianness : Big
    Codec ID : A_AC3
    Duration : 2 h 28 min
    Bit rate mode : Constant
    Bit rate : 640 kb/s
    Channel(s) : 6 channels
    Channel positions : Front: L C R, Side: L R, LFE
    Sampling rate : 48.0 kHz
    Frame rate : 31.250 FPS (1536 SPF)
    Bit depth : 16 bits
    Compression mode : Lossy
    Stream size : 681 MiB (18%)
    Title : English 5.1 @640 Kbps
    Language : English
    Service kind : Complete Main
    Default : No
    Forced : No

    Text #1
    ID : 4
    Format : VobSub
    Muxing mode : zlib
    Codec ID : S_VOBSUB
    Codec ID/Info : Picture based subtitle format used on DVDs
    Duration : 1 h 49 min
    Bit rate : 228 b/s
    Count of elements : 30
    Stream size : 183 KiB (0%)
    Title : Thai For Non-English Part
    Language : Thai
    Default : Yes
    Forced : Yes

    Text #2
    ID : 5
    Format : VobSub
    Muxing mode : zlib
    Codec ID : S_VOBSUB
    Codec ID/Info : Picture based subtitle format used on DVDs
    Duration : 2 h 27 min
    Bit rate : 2 190 b/s
    Count of elements : 1481
    Stream size : 2.31 MiB (0%)
    Title : Thai 480p From DVD Master
    Language : Thai
    Default : No
    Forced : No

    Text #3
    ID : 6
    Format : VobSub
    Muxing mode : zlib
    Codec ID : S_VOBSUB
    Codec ID/Info : Picture based subtitle format used on DVDs
    Duration : 2 h 27 min
    Bit rate : 3 572 b/s
    Count of elements : 1481
    Stream size : 3.77 MiB (0%)
    Title : Thai 720p
    Language : Thai
    Default : No
    Forced : No

    Text #4
    ID : 7
    Format : VobSub
    Muxing mode : zlib
    Codec ID : S_VOBSUB
    Codec ID/Info : Picture based subtitle format used on DVDs
    Duration : 2 h 27 min
    Bit rate : 6 564 b/s
    Count of elements : 1481
    Stream size : 6.92 MiB (0%)
    Title : Thai 1080p BluRay Master
    Language : Thai
    Default : No
    Forced : No

    Text #5
    ID : 8
    Format : VobSub
    Muxing mode : zlib
    Codec ID : S_VOBSUB
    Codec ID/Info : Picture based subtitle format used on DVDs
    Duration : 2 h 27 min
    Bit rate : 6 554 b/s
    Count of elements : 1481
    Stream size : 6.91 MiB (0%)
    Title : Thai 1080p Yellow
    Language : Thai
    Default : No
    Forced : No

    Text #6
    ID : 9
    Format : PGS
    Muxing mode : zlib
    Codec ID : S_HDMV/PGS
    Codec ID/Info : Picture based subtitle format used on BDs/HD-DVDs
    Duration : 2 h 27 min
    Bit rate : 27.9 kb/s
    Count of elements : 2962
    Stream size : 29.4 MiB (1%)
    Title : Thai PGS BluRay Master
    Language : Thai
    Default : No
    Forced : No

    Text #7
    ID : 10
    Format : VobSub
    Muxing mode : zlib
    Codec ID : S_VOBSUB
    Codec ID/Info : Picture based subtitle format used on DVDs
    Duration : 2 h 26 min
    Bit rate : 8 420 b/s
    Count of elements : 1916
    Stream size : 8.85 MiB (0%)
    Title : English
    Language : English
    Default : No
    Forced : No

    Menu
    00:00:00.000 : :00:00:00.000
    00:03:33.421 : :00:03:33.338
    00:08:04.817 : :00:08:04.734
    00:10:34.300 : :00:10:34.217
    00:15:11.494 : :00:15:11.410
    00:18:44.331 : :00:18:44.248
    00:22:43.612 : :00:22:43.529
    00:24:38.852 : :00:24:38.769
    00:29:05.702 : :00:29:05.619
    00:33:03.523 : :00:33:03.440
    00:37:11.979 : :00:37:11.896
    00:38:49.911 : :00:38:49.827
    00:41:07.006 : :00:41:06.923
    00:43:50.419 : :00:43:50.336
    00:50:05.460 : :00:50:05.377
    00:52:07.165 : :00:52:07.082
    00:55:11.474 : :00:55:11.391
    00:57:56.431 : :00:57:56.348
    01:01:04.744 : :01:01:04.661
    01:04:01.504 : :01:04:01.421
    01:06:39.912 : :01:06:39.829
    01:10:22.885 : :01:10:22.802
    01:13:00.542 : :01:13:00.459
    01:16:28.417 : :01:16:28.334
    01:18:48.807 : :01:18:48.724
    01:20:44.673 : :01:20:44.590
    01:22:47.045 : :01:22:46.962
    01:28:07.657 : :01:28:07.574
    01:31:19.140 : :01:31:19.057
    01:33:51.042 : :01:33:50.958
    01:39:22.456 : :01:39:22.373
    01:42:10.374 : :01:42:10.291
    01:44:32.099 : :01:44:32.016
    01:49:13.630 : :01:49:13.547
    01:51:00.946 : :01:51:00.862
    01:54:54.387 : :01:54:54.304
    01:59:16.023 : :01:59:15.940
    02:02:13.826 : :02:02:13.743
    02:04:30.588 : :02:04:30.504
    02:08:16.313 : :02:08:16.230
    02:13:27.666 : :02:13:27.583
    02:16:57.334 : :02:16:57.250
    02:19:19.893 : :02:19:19.809
    02:27:34.095 : :02:27:34.011



    Quote:







    Quote:
    X-Men: Apocalypse (2016) X-เม็น: อะพอคคาลิปส์
    เรื่องย่อ : นับตั้งแต่รุ่งอรุณของอารยธรรม เขาได้รับการบูชาเฉกเช่นเทพเจ้า อะโพคาลิปส์ มนุษย์กลายพันธุ์คนแรกและมีพลังอำนาจมากที่สุดในจักร วาล X-Men
    การที่สะสมพลังพิเศษของมนุษย์กลายพันธุ์คนอื่นๆ เอาไว้ ทำให้เขาเป็นอมตะและคงกระพันหลังจากตื่นขึ้นมาจากการ หลับไหลหลายพันปี
    เขากระจ่างว่าโลกที่เขาพบเป็นเช่นไร จึงได้รวมพลมนุษย์กลายพันธุ์ที่มีอำนาจยิ่งใหญ่ รวมถึงแม็กนีโต (ไมเคิล ฟาสเบนเดอร์) ผู้ท้อแท้ ในการกวาดล้างมนุษยชาติ
    และสร้างโลกใหม่ขึ้นมาที่เขาจะเป็นผู้ปกครองเมื่อชะต ากรรมของโลกแขวนอยู่บนเส้นด้าย เรเวน (เจนนิเฟอร์ ลอว์เรนซ์) ที่ได้รับความช่วยเหลือจากศาสตราจารย์เอ็กซ์ (เจมส์ แม็คเอวอย)
    ได้นำทีม X-Men รุ่นเยาว์ ยับยั้งศัตรูที่ยิ่งใหญ่ที่สุดและช่วยเหลือมนุษย์โลก จากการถูกล้างเผ่าพันธุ์!!!



    *ดู INFO Report คลิ๊ก!*Quote:

    X-Men: Apocalypse (2016) X-เม็น: อะพอคคาลิปส์
    Video
    ID : 1
    Format : AVC
    Format/Info : Advanced Video Codec
    Format profile : [email protected]
    Format settings, CABAC : Yes
    Format settings, RefFrames : 4 frames
    Codec ID : V_MPEG4/ISO/AVC
    Duration : 2 h 23 min
    Bit rate : 2 500 kb/s
    Width : 1 920 pixels
    Height : 800 pixels
    Display aspect ratio : 2.40:1
    Frame rate mode : Constant
    Frame rate : 23.976 (23976/1000) FPS
    Color space : YUV
    Chroma subsampling : 4:2:0
    Bit depth : 8 bits
    Scan type : Progressive
    Bits/(Pixel*Frame) : 0.068
    Stream size : 2.51 GiB (69%)
    Title : X-Men.Apocalypse.2016.1080p.BluRay.x264.AC3.THM5.1_H eRMineZ
    Writing library : x264 core 152 r2851M ba24899
    Encoding settings : cabac=1 / ref=4 / deblock=1:-1:-1 / analyse=0x3:0x113 / me=umh / subme=9 / psy=1 / psy_rd=1.00:0.15 / mixed_ref=1 / me_range=24 / chroma_me=1 / trellis=2 / 8x8dct=1 / cqm=0 / deadzone=21,11 / fast_pskip=1 / chroma_qp_offset=-3 / threads=32 / lookahead_threads=4 / sliced_threads=0 / nr=0 / decimate=1 / interlaced=0 / bluray_compat=0 / constrained_intra=0 / bframes=3 / b_pyramid=2 / b_adapt=2 / b_bias=0 / direct=3 / weightb=1 / open_gop=0 / weightp=2 / keyint=250 / keyint_min=25 / scenecut=40 / intra_refresh=0 / rc_lookahead=50 / rc=2pass / mbtree=1 / bitrate=2500 / ratetol=1.0 / qcomp=0.60 / qpmin=0 / qpmax=69 / qpstep=4 / cplxblur=20.0 / qblur=0.5 / vbv_maxrate=31250 / vbv_bufsize=31250 / nal_hrd=none / filler=0 / ip_ratio=1.40 / aq=3:1.00
    Default : Yes
    Forced : No

    Audio #1
    ID : 2
    Format : AC-3
    Format/Info : Audio Coding 3
    Format settings, Endianness : Big
    Codec ID : A_AC3
    Duration : 2 h 23 min
    Bit rate mode : Constant
    Bit rate : 448 kb/s
    Channel(s) : 6 channels
    Channel positions : Front: L C R, Side: L R, LFE
    Sampling rate : 48.0 kHz
    Frame rate : 31.250 FPS (1536 SPF)
    Bit depth : 16 bits
    Compression mode : Lossy
    Delay relative to video : 46 s 28 ms
    Stream size : 458 MiB (12%)
    Title : Thai BluRay Master 5.1 @448 Kbps
    Language : Thai
    Service kind : Complete Main
    Default : Yes
    Forced : Yes

    Audio #2
    ID : 3
    Format : AC-3
    Format/Info : Audio Coding 3
    Format settings, Endianness : Big
    Codec ID : A_AC3
    Duration : 2 h 23 min
    Bit rate mode : Constant
    Bit rate : 640 kb/s
    Channel(s) : 6 channels
    Channel positions : Front: L C R, Side: L R, LFE
    Sampling rate : 48.0 kHz
    Frame rate : 31.250 FPS (1536 SPF)
    Bit depth : 16 bits
    Compression mode : Lossy
    Delay relative to video : 46 s 0 ms
    Stream size : 655 MiB (18%)
    Title : English 5.1 @640 Kbps
    Language : English
    Service kind : Complete Main
    Default : No
    Forced : No

    Text #1
    ID : 4
    Format : VobSub
    Muxing mode : zlib
    Codec ID : S_VOBSUB
    Codec ID/Info : Picture based subtitle format used on DVDs
    Duration : 2 h 10 min
    Bit rate : 415 b/s
    Count of elements : 99
    Stream size : 399 KiB (0%)
    Title : Thai For Non-English Part Only
    Language : Thai
    Default : Yes
    Forced : Yes

    Text #2
    ID : 5
    Format : VobSub
    Muxing mode : zlib
    Codec ID : S_VOBSUB
    Codec ID/Info : Picture based subtitle format used on DVDs
    Duration : 2 h 22 min
    Bit rate : 1 542 b/s
    Count of elements : 1474
    Stream size : 1.58 MiB (0%)
    Title : Thai 480p
    Language : Thai
    Default : No
    Forced : No

    Text #3
    ID : 6
    Format : VobSub
    Muxing mode : zlib
    Codec ID : S_VOBSUB
    Codec ID/Info : Picture based subtitle format used on DVDs
    Duration : 2 h 22 min
    Bit rate : 2 631 b/s
    Count of elements : 1474
    Stream size : 2.69 MiB (0%)
    Title : Thai 720p
    Language : Thai
    Default : No
    Forced : No

    Text #4
    ID : 7
    Format : VobSub
    Muxing mode : zlib
    Codec ID : S_VOBSUB
    Codec ID/Info : Picture based subtitle format used on DVDs
    Duration : 2 h 22 min
    Bit rate : 4 681 b/s
    Count of elements : 1474
    Stream size : 4.78 MiB (0%)
    Title : Thai 1080p BluRay Master
    Language : Thai
    Default : No
    Forced : No

    Text #5
    ID : 8
    Format : VobSub
    Muxing mode : zlib
    Codec ID : S_VOBSUB
    Codec ID/Info : Picture based subtitle format used on DVDs
    Duration : 2 h 22 min
    Bit rate : 4 681 b/s
    Count of elements : 1474
    Stream size : 4.78 MiB (0%)
    Title : Thai 1080p Yellow
    Language : Thai
    Default : No
    Forced : No

    Text #6
    ID : 9
    Format : PGS
    Muxing mode : zlib
    Codec ID : S_HDMV/PGS
    Codec ID/Info : Picture based subtitle format used on BDs/HD-DVDs
    Duration : 2 h 22 min
    Bit rate : 19.1 kb/s
    Count of elements : 2950
    Stream size : 19.5 MiB (1%)
    Title : Thai PGS BluRay Master
    Language : Thai
    Default : No
    Forced : No

    Text #7
    ID : 10
    Format : VobSub
    Muxing mode : zlib
    Codec ID : S_VOBSUB
    Codec ID/Info : Picture based subtitle format used on DVDs
    Duration : 2 h 12 min
    Bit rate : 6 299 b/s
    Count of elements : 1457
    Stream size : 5.96 MiB (0%)
    Title : English
    Language : English
    Default : No
    Forced : No

    Menu
    00:00:00.000 : en:Chapter 1
    00:07:32.994 : en:Chapter 2
    00:13:27.390 : en:Chapter 3
    00:17:21.290 : en:Chapter 4
    00:24:09.698 : en:Chapter 5
    00:29:59.548 : en:Chapter 6
    00:35:49.439 : en:Chapter 7
    00:40:14.287 : en:Chapter 8
    00:45:10.708 : en:Chapter 9
    00:48:38.499 : en:Chapter 10
    00:54:36.815 : en:Chapter 11
    00:58:51.027 : en:Chapter 12
    01:03:57.875 : en:Chapter 13
    01:11:50.056 : en:Chapter 14
    01:16:47.102 : en:Chapter 15
    01:21:32.721 : en:Chapter 16
    01:26:59.798 : en:Chapter 17
    01:33:20.011 : en:Chapter 18
    01:36:00.838 : en:Chapter 19
    01:39:05.106 : en:Chapter 20
    01:42:48.579 : en:Chapter 21
    01:49:11.586 : en:Chapter 22
    01:54:22.564 : en:Chapter 23
    01:56:35.864 : en:Chapter 24
    02:03:04.752 : en:Chapter 25
    02:07:10.915 : en:Chapter 26
    02:10:13.305 : en:Chapter 27
    02:12:08.295 : en:Chapter 28



    Quote:








    X-Men.2000.REMASTERED.1080p.BluRay.x264.AC3.THM5.1_H eRMineZ.mkv - 2.6 GB
    http://www.mekafile.com/dl.php?f=dMc4ebbUZn7G
    X-Men.Apocalypse.2016.1080p.BluRay.x264.AC3.THM5.1_H eRMineZ.mkv - 3.6 GB
    http://www.mekafile.com/dl.php?f=pK4be2bUZmAn
    X-Men.Days.of.Future.Past.2014.THE.ROGUE.CUT.1080p.B luRay.x264.AC3.THM5.1_HeRMineZ.mkv - 3.7 GB
    http://www.mekafile.com/dl.php?f=HObfd0bUZmHg
    X-Men.First.Class.2011.1080p.BluRay.x264.AC3.THM5.1_ HeRMineZ.mkv - 3.3 GB
    http://www.mekafile.com/dl.php?f=cR3605bUZnFT
    X-Men.The.Last.Stand.2006.REMASTERED.1080p.BluRay.x2 64.AC3.THM5.1_HeRMineZ.mkv - 2.8 GB
    http://www.mekafile.com/dl.php?f=vU69b8bUZnle
    X2.2003.REMASTERED.1080p.BluRay.x264.AC3.THM5.1_He RMineZ.mkv - 3.3 GB
    http://www.mekafile.com/dl.php?f=wv166dbUZnMF

  2. The Following User Says Thank You to Duckload.us For This Useful Post:

    jangska (09-24-2019)

  3. #2
    Senior Member
    Join Date
    Jun 2014
    Posts
    1,159
    Thanks
    0
    Thanked 0 Times in 0 Posts
    ขอบคุณครับ

+ Reply to Thread

Thread Information

Users Browsing this Thread

There are currently 1 users browsing this thread. (0 members and 1 guests)

     

Posting Permissions

  • You may not post new threads
  • You may not post replies
  • You may not post attachments
  • You may not edit your posts