+ Reply to Thread
Results 1 to 2 of 2
  1. #1
    Administrators Duckload.us's Avatar
    Join Date
    Dec 2010
    Posts
    104,359
    Thanks
    9
    Thanked 107,569 Times in 50,736 Posts

    Question [] Solo A Star Wars Story (2018) [MKV HEVC 4K HDR10] [English : Dolby Atmos / Dolby TrueHD 7.1 Ch / HE-AAC 7.1 Ch] [ҡ : HE-AAC 5.1 Ch] [ PGS : English / ]



    Solo A Star Wars Story (2018) [MKV HEVC 4K HDR10]
    [English : Dolby Atmos / Dolby TrueHD 7.1 Ch / HE-AAC 7.1 Ch] [ҡ : HE-AAC 5.1 Ch] [ PGS : English / ]

    ҹŤ͹ Сü㹡硫ѹʹ Solo: A Star Wars Story ͡ü¤ͧ⡧餹ŧѡҡ ش㹨ѡ
    ҹͧǤҭ㹡仼šԹ ͧҪҡѹʹѹ ҹ 龺ѺشʹѡԹ٢ͧ ຤
    еͧ༪ԭ˹ҡѺѡѹش¡Ҩ Lando Calrissian 㹡ü¤駹˹ͧǢͧʵ ʷҧŨҡҡش!!!

    Code:
    General
    Complete name               : Solo A Star Wars Story (2018) [HEVC 4K HDR10] [EN TrueHD 7.1 Atmos HE-AAC 7.1] [TH HE-AAC 5.1].mkv
    Format                      : Matroska
    Format version              : Version 4
    File size                   : 14.1 GiB
    Duration                    : 2 h 14 min
    Overall bit rate mode       : Variable
    Overall bit rate            : 15.0 Mb/s
    Movie name                  : Solo A Star Wars Story (2018) [HEVC 4K HDR10] [English TrueHD 7.1 Atmos / HE-AAC 7.1] [Thai HE-AAC 5.1]
    Encoded date                : UTC 2019-05-28 07:39:07
    Writing application         : mkvmerge v34.0.0 ('Sight and Seen') 64-bit
    Writing library             : libebml v1.3.7 + libmatroska v1.5.0
    
    Video
    ID                          : 1
    Format                      : HEVC
    Format/Info                 : High Efficiency Video Coding
    Commercial name             : HDR10
    Format profile              : Main [email protected]@High
    Codec ID                    : V_MPEGH/ISO/HEVC
    Duration                    : 2 h 14 min
    Bit rate                    : 9 578 kb/s
    Width                       : 3 840 pixels
    Height                      : 2 160 pixels
    Display aspect ratio        : 16:9
    Frame rate mode             : Constant
    Frame rate                  : 23.976 (24000/1001) FPS
    Color space                 : YUV
    Chroma subsampling          : 4:2:0 (Type 2)
    Bit depth                   : 10 bits
    Bits/(Pixel*Frame)          : 0.048
    Stream size                 : 9.02 GiB (64%)
    Default                     : Yes
    Forced                      : No
    Color range                 : Limited
    Color primaries             : BT.2020
    Transfer characteristics    : PQ
    Matrix coefficients         : BT.2020 non-constant
    Mastering display color pri : Display P3
    Mastering display luminance : min: 0.0001 cd/m2, max: 1000 cd/m2
    
    Audio #1
    ID                          : 2
    Format                      : MLP FBA 16-ch
    Format/Info                 : Meridian Lossless Packing FBA with 16-channel presentation
    Commercial name             : Dolby TrueHD with Dolby Atmos
    Codec ID                    : A_TRUEHD
    Duration                    : 2 h 14 min
    Bit rate mode               : Variable
    Bit rate                    : 4 981 kb/s
    Maximum bit rate            : 4 647 kb/s
    Channel(s)                  : 8 channels
    Channel layout              : L R C LFE Ls Rs Lb Rb
    Sampling rate               : 48.0 kHz
    Frame rate                  : 1 200.000 FPS (40 SPF)
    Compression mode            : Lossless
    Stream size                 : 4.69 GiB (33%)
    Language                    : English
    Default                     : Yes
    Forced                      : No
    Number of dynamic objects   : 13
    Bed channel count           : 1 channel
    Bed channel configuration   : LFE
    
    Audio #2
    ID                          : 3
    Format                      : AAC LC SBR
    Format/Info                 : Advanced Audio Codec Low Complexity with Spectral Band Replication
    Commercial name             : HE-AAC
    Format settings             : Explicit
    Codec ID                    : A_AAC-2
    Duration                    : 2 h 14 min
    Bit rate                    : 202 kb/s
    Channel(s)                  : 8 channels
    Channel layout              : C L R Ls Rs Lb Rb LFE
    Sampling rate               : 48.0 kHz
    Frame rate                  : 23.438 FPS (2048 SPF)
    Compression mode            : Lossy
    Delay relative to video     : 36 ms
    Stream size                 : 194 MiB (1%)
    Language                    : English
    Default                     : No
    Forced                      : No
    
    Audio #3
    ID                          : 4
    Format                      : AAC LC SBR
    Format/Info                 : Advanced Audio Codec Low Complexity with Spectral Band Replication
    Commercial name             : HE-AAC
    Format settings             : Explicit
    Codec ID                    : A_AAC-2
    Duration                    : 2 h 14 min
    Bit rate                    : 153 kb/s
    Channel(s)                  : 6 channels
    Channel layout              : C L R Ls Rs LFE
    Sampling rate               : 48.0 kHz
    Frame rate                  : 23.438 FPS (2048 SPF)
    Compression mode            : Lossy
    Delay relative to video     : 36 ms
    Stream size                 : 147 MiB (1%)
    Language                    : Thai
    Default                     : No
    Forced                      : No
    
    Text #1
    ID                          : 5
    Format                      : PGS
    Muxing mode                 : zlib
    Codec ID                    : S_HDMV/PGS
    Codec ID/Info               : Picture based subtitle format used on BDs/HD-DVDs
    Duration                    : 2 h 5 min
    Bit rate                    : 42.1 kb/s
    Count of elements           : 4496
    Stream size                 : 37.7 MiB (0%)
    Language                    : English
    Default                     : No
    Forced                      : No
    
    Text #2
    ID                          : 6
    Format                      : PGS
    Muxing mode                 : zlib
    Codec ID                    : S_HDMV/PGS
    Codec ID/Info               : Picture based subtitle format used on BDs/HD-DVDs
    Duration                    : 2 h 7 min
    Bit rate                    : 24.6 kb/s
    Count of elements           : 3642
    Stream size                 : 22.4 MiB (0%)
    Language                    : Thai
    Default                     : No
    Forced                      : No
    
    Menu
    00:00:00.000                : en:(01)00:00:00:000
    00:00:53.845                : en:(02)00:00:53:845
    00:02:10.213                : en:(03)00:02:10:213
    00:03:53.149                : en:(04)00:03:53:149
    00:06:00.485                : en:(05)00:06:00:485
    00:09:27.566                : en:(06)00:09:27:566
    00:13:16.045                : en:(07)00:13:16:045
    00:14:14.019                : en:(08)00:14:14:019
    00:16:12.262                : en:(09)00:16:12:262
    00:19:45.100                : en:(10)00:19:45:100
    00:22:43.820                : en:(11)00:22:43:820
    00:24:37.267                : en:(12)00:24:37:267
    00:27:00.035                : en:(13)00:27:00:035
    00:30:02.926                : en:(14)00:30:02:926
    00:32:54.680                : en:(15)00:32:54:680
    00:39:09.764                : en:(16)00:39:09:764
    00:41:59.224                : en:(17)00:41:59:224
    00:43:20.180                : en:(18)00:43:20:180
    00:44:32.127                : en:(19)00:44:32:127
    00:48:03.755                : en:(20)00:48:03:755
    00:51:58.323                : en:(21)00:51:58:323
    00:53:17.527                : en:(22)00:53:17:527
    00:57:23.523                : en:(23)00:57:23:523
    01:00:16.779                : en:(24)01:00:16:779
    01:02:40.882                : en:(25)01:02:40:882
    01:04:51.262                : en:(26)01:04:51:262
    01:05:29.508                : en:(27)01:05:29:508
    01:07:12.027                : en:(28)01:07:12:027
    01:08:05.915                : en:(29)01:08:05:915
    01:10:00.112                : en:(30)01:10:00:112
    01:12:44.193                : en:(31)01:12:44:193
    01:14:40.851                : en:(32)01:14:40:851
    01:18:30.872                : en:(33)01:18:30:872
    01:23:15.740                : en:(34)01:23:15:740
    01:26:32.645                : en:(35)01:26:32:645
    01:30:33.135                : en:(36)01:30:33:135
    01:35:19.672                : en:(37)01:35:19:672
    01:37:04.860                : en:(38)01:37:04:860
    01:38:52.801                : en:(39)01:38:52:801
    01:41:18.530                : en:(40)01:41:18:530
    01:43:02.676                : en:(41)01:43:02:676
    01:45:27.821                : en:(42)01:45:27:821
    01:46:32.177                : en:(43)01:46:32:177
    01:49:45.996                : en:(44)01:49:45:996
    01:53:33.890                : en:(45)01:53:33:890
    01:57:13.901                : en:(46)01:57:13:901
    01:58:55.127                : en:(47)01:58:55:127
    02:01:34.829                : en:(48)02:01:34:829
    02:03:20.893                : en:(49)02:03:20:893
    02:06:09.353                : en:(50)02:06:09:353
    02:14:45.494                : en:(51)02:14:45:494








    Download: cornfile
    http://cornfile.com/rp7jvv6etlgg
    Download: mekafile
    http://www.mekafile.com/dl.php?f=R97499bV5Itz

  2. The Following User Says Thank You to Duckload.us For This Useful Post:

    Wesker_TOT (06-13-2019)

  3. #2
    Senior Member
    Join Date
    Dec 2013
    Posts
    1,665
    Thanks
    3,621
    Thanked 0 Times in 0 Posts
    ͺسѺ...

Thread Information

Users Browsing this Thread

There are currently 1 users browsing this thread. (0 members and 1 guests)

     

Posting Permissions

  • You may not post new threads
  • You may not post replies
  • You may not post attachments
  • You may not edit your posts