+ Reply to Thread
Results 1 to 2 of 2
  1. #1
    Administrators Duckload.us's Avatar
    Join Date
    Dec 2010
    Posts
    103,607
    Thanks
    9
    Thanked 106,516 Times in 50,402 Posts

    Question (^ฝรั่ง*ใหม่!*พากย์ไทยมาสเตอร์^)-AN ORDINARY MAN (2017)-(Super HQ)-[1080p.BluRay.x264]•[Sound Eng DTS/Thai AC3:MASTER::Modifide]•[SUB:Eng]




    An Ordinary Man (2017)
    R | 1h 30min | Drama, Thriller, War | 13 April 2018 (USA)
    Director: Brad Silberling
    Writer: Brad Silberling
    Stars: Ben Kingsley, Hera Hilmar, Peter Serafinowicz

    อาชญากรสงครามและอดีตนายพล (เบ็นคิงสลีย์) ใช้ชีวิตในระหว่างการหลบหนีจากหน่วยงานระหว่างประเทศ ถูกย้ายไปที่ที่หลบภัยใหม่ซึ่งเขาได้พัฒนาความสัมพัน ธ์กับแม่บ้านที่คอยดูแลเขา แต่เมื่อเขาค้นพบว่าจริง ๆ แล้วเธอเป็นตัวแทนได้รับการว่าจ้างเพื่อปกป้องเขาเขา ตัดสินใจที่จะเปลี่ยนแปลงชีวิตของพวกเขาทั้งสองอย่าง มาก


    Code:
    Format                      : Matroska
    Format version              : Version 4
    File size                   : 4.29 GiB
    Duration                    : 1 h 30 min
    Overall bit rate            : 6 771 kb/s
    Movie name                  : An.Ordinry.Man.2017.1080p.BluRay.X264. (Super HQ)
    
    Video
    ID                          : 1
    Format                      : AVC
    Format/Info                 : Advanced Video Codec
    Format profile              : [email protected]
    Format settings             : CABAC / 4 Ref Frames
    Format settings, CABAC      : Yes
    Format settings, ReFrames   : 4 frames
    Codec ID                    : V_MPEG4/ISO/AVC
    Duration                    : 1 h 30 min
    Bit rate                    : 4 624 kb/s
    Width                       : 1 920 pixels
    Height                      : 800 pixels
    Display aspect ratio        : 2.25:1
    Original display aspect rat : 2.25:1
    Frame rate mode             : Constant
    Frame rate                  : 23.976 (24000/1001) FPS
    Color space                 : YUV
    Chroma subsampling          : 4:2:0
    Bit depth                   : 8 bits
    Scan type                   : Progressive
    Bits/(Pixel*Frame)          : 0.126
    Stream size                 : 2.93 GiB (68%)
    Writing library             : x264 core 155 r2901 7d0ff22
    Language                    : English
    Default                     : Yes
    Forced                      : No
    Color range                 : Limited
    Color primaries             : BT.709
    Transfer characteristics    : BT.709
    Matrix coefficients         : BT.709
    
    Audio #1
    ID                          : 2
    Format                      : AC-3
    Format/Info                 : Audio Coding 3
    Commercial name             : Dolby Digital
    Codec ID                    : A_AC3
    Duration                    : 1 h 30 min
    Bit rate mode               : Constant
    Bit rate                    : 160 kb/s
    Channel(s)                  : 6 channels
    Channel layout              : L R C LFE Ls Rs
    Sampling rate               : 44.1 kHz
    Frame rate                  : 28.711 FPS (1536 SPF)
    Bit depth                   : 16 bits
    Compression mode            : Lossy
    Stream size                 : 104 MiB (2%)
    Title                       : 5.1 AC3-Thai 160k 103m
    Language                    : Thai
    Service kind                : Complete Main
    Default                     : Yes
    Forced                      : No
    
    Audio #2
    ID                          : 3
    Format                      : DTS
    Format/Info                 : Digital Theater Systems
    Codec ID                    : A_DTS
    Duration                    : 1 h 30 min
    Bit rate mode               : Constant
    Bit rate                    : 1 984 kb/s
    Channel(s)                  : 6 channels
    Channel layout              : C L R Ls Rs LFE
    Sampling rate               : 24.0 kHz
    Frame rate                  : 23.438 FPS (1024 SPF)
    Bit depth                   : 16 bits
    Compression mode            : Lossy
    Stream size                 : 1.26 GiB (29%)
    Title                       : dts 5.1-Eng 24000-1.25g
    Language                    : English
    Default                     : No
    Forced                      : No
    
    Text #1
    ID                          : 4
    Format                      : UTF-8
    Codec ID                    : S_TEXT/UTF8
    Codec ID/Info               : UTF-8 Plain Text
    Duration                    : 1 h 19 min
    Bit rate                    : 42 b/s
    Count of elements           : 794
    Stream size                 : 24.9 KiB (0%)
    Title                       : SRT
    Language                    : English
    Default                     : Yes
    Forced                      : No
    
    Text #2
    ID                          : 5
    Format                      : UTF-8
    Codec ID                    : S_TEXT/UTF8
    Codec ID/Info               : UTF-8 Plain Text
    Duration                    : 1 h 24 min
    Bit rate                    : 42 b/s
    Count of elements           : 879
    Stream size                 : 26.4 KiB (0%)
    Title                       : SRT-Hearing Impaired=ผู้บกพร่องทางเสียง
    Language                    : English
    Default                     : No
    Forced                      : No
    
    Menu
    00:00:00.000                : :Chapter 1
    00:06:49.909                : :Chapter 2
    00:13:22.885                : :Chapter 3
    00:23:18.021                : :Chapter 4
    00:33:59.494                : :Chapter 5
    00:38:27.720                : :Chapter 6
    00:46:05.676                : :Chapter 7
    00:54:49.116                : :Chapter 8
    01:03:30.427                : :Chapter 9
    01:09:15.187                : :Chapter 10
    01:17:11.496                : :Chapter 11
    01:25:13.476                : :Chapter 12






    4.3 GB
    http://cornfile.com/nezvy1lfq4j3
    http://www.mekafile.com/dl.php?f=k916b4bV8rKI
    2.0 GB
    http://cornfile.com/4rdxy41bsrxm
    http://www.mekafile.com/dl.php?f=cjf414bV8uAa
    780.2 MB
    http://cornfile.com/5nmshny1vuvn
    http://www.mekafile.com/dl.php?f=2q3f62bV8rAk

  2. The Following 3 Users Say Thank You to Duckload.us For This Useful Post:

    apichartdear (06-12-2019), noi54 (06-14-2019), smakha (06-12-2019)

  3. #2
    Senior Member
    Join Date
    Dec 2013
    Posts
    240
    Thanks
    162
    Thanked 0 Times in 0 Posts
    ขอบคุณครับ

+ Reply to Thread

Thread Information

Users Browsing this Thread

There are currently 1 users browsing this thread. (0 members and 1 guests)

     

Posting Permissions

  • You may not post new threads
  • You may not post replies
  • You may not post attachments
  • You may not edit your posts