+ Reply to Thread
Results 1 to 2 of 2
  1. #1
    Administrators Duckload.us's Avatar
    Join Date
    Dec 2010
    Posts
    103,441
    Thanks
    9
    Thanked 106,332 Times in 50,348 Posts

    Question (^չ ÷R*Shaw Classic*ҡ^)-ԧѡԴҪǧѧ [1984] An Amorous Woman of Tang Dynasty-[Full HD 1080p.BluRay.x264][Sound Chi DTS 5.1/Thai AC3 5.1:MASTER::Modifide][HARD SUB:Chi]



    An Amorous Woman of Tang Dynasty/Tong chiu ho fong nui (1984)

    ǹǷդԴǡǡ˭ԧؤ ͧ ͺǪ繹ѡǪ˭ԧդѹ֡駡Ѻѡ Һ๨ҼդԴ͵ҹ ҳͧѧչ蹡ѹ ǹѹҧȡѺͧ繷 ͧ价 ;Ƿͧ͡ ǹը֧ȡү
    Code:
    Format                      : Matroska
    Format version              : Version 4
    File size                   : 14.1 GiB
    Duration                    : 1 h 37 min
    Overall bit rate            : 20.7 Mb/s
    Video
    ID                          : 1
    Format                      : AVC
    Format/Info                 : Advanced Video Codec
    Format profile              : [email protected]
    Format settings             : CABAC / 1 Ref Frames
    Format settings, CABAC      : Yes
    Format settings, ReFrames   : 1 frame
    Format settings, GOP        : M=1, N=15
    Codec ID                    : V_MPEG4/ISO/AVC
    Duration                    : 1 h 37 min
    Bit rate                    : 19.9 Mb/s
    Width                       : 1 920 pixels
    Height                      : 1 080 pixels
    Display aspect ratio        : 16:9
    Frame rate mode             : Constant
    Frame rate                  : 30.000 FPS
    Color space                 : YUV
    Chroma subsampling          : 4:2:0
    Bit depth                   : 8 bits
    Scan type                   : Progressive
    Bits/(Pixel*Frame)          : 0.320
    Stream size                 : 13.5 GiB (96%)
    Title                       : An Amorous Woman of Tang Dynasty 1984-Full HD 1080p
    Language                    : Chinese
    Default                     : Yes
    Forced                      : No
    
    Audio #1
    ID                          : 2
    Format                      : AC-3
    Format/Info                 : Audio Coding 3
    Commercial name             : Dolby Digital
    Codec ID                    : A_AC3
    Duration                    : 1 h 36 min
    Bit rate mode               : Constant
    Bit rate                    : 192 kb/s
    Channel(s)                  : 2 channels
    Channel layout              : L R
    Sampling rate               : 48.0 kHz
    Frame rate                  : 31.250 FPS (1536 SPF)
    Bit depth                   : 16 bits
    Compression mode            : Lossy
    Delay relative to video     : 4 s 500 ms
    Stream size                 : 133 MiB (1%)
    Title                       : 
    Language                    : Thai
    Service kind                : Complete Main
    Default                     : Yes
    Forced                      : No
    
    Audio #2
    ID                          : 3
    Format                      : DTS
    Format/Info                 : Digital Theater Systems
    Codec ID                    : A_DTS
    Duration                    : 1 h 37 min
    Bit rate mode               : Constant
    Bit rate                    : 661 kb/s
    Channel(s)                  : 6 channels
    Channel layout              : C L R Ls Rs LFE
    Sampling rate               : 8 000 Hz
    Frame rate                  : 7.813 FPS (1024 SPF)
    Bit depth                   : 16 bits
    Compression mode            : Lossy
    Stream size                 : 459 MiB (3%)
    Title                       : dts 5.1-Chi 8000-459m-Cantonese
    Language                    : Chinese
    Default                     : No
     Forced                      : No













    Download: cornfile
    http://cornfile.com/uii8gsomtdtw
    Download: mekafile
    http://www.mekafile.com/dl.php?f=iY51fbbV8Bv5

  2. The Following User Says Thank You to Duckload.us For This Useful Post:

    noi54 (Yesterday)

  3. #2
    Senior Member
    Join Date
    Jun 2012
    Posts
    1,145
    Thanks
    0
    Thanked 1 Time in 1 Post
    ͺسѺ

Thread Information

Users Browsing this Thread

There are currently 1 users browsing this thread. (0 members and 1 guests)

     

Posting Permissions

  • You may not post new threads
  • You may not post replies
  • You may not post attachments
  • You may not edit your posts