+ Reply to Thread
Results 1 to 1 of 1
  1. #1
    Administrators Duckload.us's Avatar
    Join Date
    Dec 2010
    Posts
    103,607
    Thanks
    9
    Thanked 106,516 Times in 50,402 Posts

    Question [ฝรั่ง]-[**V1**] • The Secret Life of Pets 2 (2019) : เรื่องลับแก๊งขนฟู 2 • [720p] • [* HDCAM.THR2.0.x264 *] [พากย์ไทย 2.0 + เสียงอังกฤษ 2.0]



    ••• 720p.HDCAM.THR2.0.x264 •••
    พากย์ไทยโรง 2.0 + เสียงอังกฤษ 2.0


    Secret Life of Pets 2 เรื่องลับแก๊งขนฟู คือผลงานลำดับที่ 5 ซึ่งเป็นการจับมือกันระหว่างอิลลูมิเนชั่น เอนเตอร์เทนเมนต์ และยูนิเวอร์แซล พิคเจอร์ส ซึ่งจะมาเผยความลับว่าเหล่าสัตว์เลี้ยงทำอะไร ระหว่างที่เจ้าของไม่อยู่บ้าน ภาพยนตร์เรื่องนี้ ได้นักแสดงตลกชื่อดังอย่าง หลุยส์ ซี.เค., อีริค สโตนสตรีท และเควิน ฮาร์ท มาให้เสียงพากย์ โดยได้ คริส เรโนด์ จาก Despicable Me, Despicable Me 2 มารับหน้าที่ผู้กำกับเตรียมพบกับความน่ารักของเหล่าส ัตว์เลี้ยงแสนซน (สุดแสบ) ใน The Secret Life Of Pets เรื่องลับแก๊งขนฟู!!


    Format : Matroska
    Format version : Version 4
    File size : 1.92 GiB
    Duration : 1 h 16 min
    Overall bit rate : 3 609 kb/s
    Movie name : The Secret Life of Pets 2.2019.720p.HDCAM.THR2.0.x264_By [email protected]

    Video
    ID : 1
    Format : AVC
    Format/Info : Advanced Video Codec
    Format profile : [email protected]
    Format settings : CABAC / 6 Ref Frames
    Format settings, CABAC : Yes
    Format settings, Reference : 6 frames
    Codec ID : V_MPEG4/ISO/AVC
    Duration : 1 h 16 min
    Bit rate mode : Variable
    Bit rate : 3 000 kb/s
    Maximum bit rate : 16.4 Mb/s
    Width : 1 280 pixels
    Height : 590 pixels
    Display aspect ratio : 2.2:1
    Frame rate mode : Constant
    Frame rate : 24.000 FPS
    Standard : Component
    Color space : YUV
    Chroma subsampling : 4:2:0
    Bit depth : 8 bits
    Scan type : Progressive
    Bits/(Pixel*Frame) : 0.166
    Stream size : 1.60 GiB (83%)
    Title : The Secret Life of Pets 2.2019.720p.HDCAM.THR2.0.x264_By [email protected]
    Writing library : x264 core 148
    Encoding settings : cabac=1 / ref=6 / deblock=1:0:0 / analyse=0x3:0x113 / me=hex / subme=7 / psy=1 / psy_rd=1.00:0.00 / mixed_ref=1 / me_range=16 / chroma_me=1 / trellis=1 / 8x8dct=1 / cqm=1 / deadzone=21,11 / fast_pskip=1 / chroma_qp_offset=-2 / threads=12 / lookahead_threads=2 / sliced_threads=0 / slices=1 / nr=0 / decimate=1 / interlaced=0 / minigop=0 / stitchable=1 / constrained_intra=0 / bframes=3 / b_pyramid=0 / b_adapt=1 / b_bias=0 / direct=1 / weightb=1 / open_gop=1 / weightp=2 / keyint=250 / keyint_min=24 / scenecut=40 / intra_refresh=0 / rc_lookahead=40 / rc=abr / mbtree=1 / bitrate=3000 / ratetol=1.0 / qcomp=0.60 / qpmin=3 / qpmax=69 / qpstep=4 / vbv_maxrate=16400 / vbv_bufsize=16400 / nal_hrd=vbr / filler=0 / ip_ratio=1.40 / aq=1:1.00
    Language : English
    Default : Yes
    Forced : No
    Color range : Limited
    Color primaries : BT.709
    Transfer characteristics : BT.709
    Matrix coefficients : BT.709

    Audio #1
    ID : 2
    Format : AC-3
    Format/Info : Audio Coding 3
    Commercial name : Dolby Digital
    Codec ID : A_AC3
    Duration : 1 h 16 min
    Bit rate mode : Constant
    Bit rate : 384 kb/s
    Channel(s) : 2 channels
    Channel layout : L R
    Sampling rate : 48.0 kHz
    Frame rate : 31.250 FPS (1536 SPF)
    Bit depth : 16 bits
    Compression mode : Lossy
    Stream size : 209 MiB (11%)
    Title : ThaiRong 2.0 @ 384 kb/s By [email protected]
    Language : Thai
    Service kind : Complete Main
    Default : Yes
    Forced : No

    Audio #2
    ID : 3
    Format : AC-3
    Format/Info : Audio Coding 3
    Commercial name : Dolby Digital
    Codec ID : A_AC3
    Duration : 1 h 16 min
    Bit rate mode : Constant
    Bit rate : 224 kb/s
    Channel(s) : 2 channels
    Channel layout : L R
    Sampling rate : 48.0 kHz
    Frame rate : 31.250 FPS (1536 SPF)
    Bit depth : 16 bits
    Compression mode : Lossy
    Stream size : 122 MiB (6%)
    Title : English 2.0 @ 224 kb/s
    Language : English
    Service kind : Complete Main
    Default : No
    Forced : No





    Download: cornfile
    http://cornfile.com/r5rau2bivnvv
    Download: mekafile
    http://www.mekafile.com/dl.php?f=MM1ddbbV8CjF

  2. The Following 2 Users Say Thank You to Duckload.us For This Useful Post:

    Tellmon (06-12-2019), Wesker_TOT (06-12-2019)

+ Reply to Thread

Thread Information

Users Browsing this Thread

There are currently 1 users browsing this thread. (0 members and 1 guests)

     

Posting Permissions

  • You may not post new threads
  • You may not post replies
  • You may not post attachments
  • You may not edit your posts