Quote:

Captain Marvel_(2019)
เรื่องราวของของแครอล แดนเวอร์ส หรือ กัปตัน มาร์เวล ฮีโร่ที่ทรงพลังที่สุดในจักรวาลมาร์เวล
กับการปกป้องโลกจากสงครามระดับจักรวาลระหว่างเอเลี่ย น 2 เผ่าพันธุ์ มาร์เวล สตูดิโอส์ จะพาเราไปพบกับการผจญภัย
ที่คุณไม่เคยเห็นมาก่อนในประวัติศาสตร์ของจักรวาลภาพ ยนตร์มาร์เวล พบกัน มีนาคม 2562 !!!
.
.
เกร็ดจากภาพยนตร์
เควิน ไฟกี ประธานบริหารมาร์เวลสตูดิโอได้ออกมายืนยันอีกครั้ง รวมถึงอธิบายความพิเศษของ Captain Marvel
ว่าเธอแตกต่างจากซูเปอร์ฮีโร่คนอื่นอย่างไร Captain Marvel คือตัวละครในคอมมิกของเรา เธอมีเรื่องราวที่น่าสนใจ
เพราะส่วนหนึ่งของเธออยู่บนโลก ในขณะที่อีกส่วนหนึ่งของเธอคือพลังระดับคอสมิก และตอนนี้เราได้สร้างภาพยนตร์มากมาย
ที่มีเหตุการณ์เกิดขึ้นบนโลก รวมไปถึงการผจญภัยในอวกาศผ่าน Avengers, Guardians of the Galaxy และ Thor
พวกเราคิดว่านี่เป็นช่วงเวลาที่เหมาะสมแล้วที่เราจะแ นะนำกัปตันมาร์เวลมาสู่โลก เธอคือหนึ่งในตัวละครที่เป็นที่นิยมมากที่สุดคนหนึ่ง ในคอมมิกของเรา
แถมยังเป็นหนึ่งในตัวละครที่ทรงพลังมากที่สุดในคอมมิ กด้วย และจะเป็นตัวละครที่แข็งแกร่งมากที่สุดใน Marvel Cinematic Universe



Quote:
*ดู INFO Report คลิ๊ก!*
Format : Matroska
Format version : Version 4 / Version 2
File size : 10.0 GiB
Duration : 2 h 3 min
Overall bit rate : 11.6 Mb/s
Movie name : [email protected]iambit

Video
ID : 1
Format : HEVC
Format/Info : High Efficiency Video Coding
Format profile : Main [email protected]@High
Codec ID : V_MPEGH/ISO/HEVC
Duration : 2 h 3 min
Bit rate : 4 823 kb/s
Width : 1 920 pixels
Height : 804 pixels
Display aspect ratio : 2.40:1
Frame rate mode : Constant
Frame rate : 23.976 (24000/1001) FPS
Color space : YUV
Chroma subsampling : 4:2:0
Bit depth : 10 bits
Bits/(Pixel*Frame) : 0.130
Stream size : 4.17 GiB (42%)
Title : [email protected]iambit
Writing library : x265 - H.265/HEVC codec
Language : English
Default : Yes
Forced : No

Audio #1
ID : 2
Format : AC-3
Format/Info : Audio Coding 3
Format settings, Endianness : Big
Codec ID : A_AC3
Duration : 2 h 3 min
Bit rate mode : Constant
Bit rate : 384 kb/s
Channel(s) : 2 channels
Channel positions : Front: L R
Sampling rate : 48.0 kHz
Frame rate : 31.250 FPS (1536 spf)
Bit depth : 16 bits
Compression mode : Lossy
Delay relative to video : 1 s 0 ms
Stream size : 340 MiB (3%)
Title : Thai Master
Language : Thai
Service kind : Complete Main
Default : Yes
Forced : Yes

Audio #2
ID : 3
Format : DTS
Format/Info : Digital Theater Systems
Format profile : MA / Core
Mode : 16
Format settings, Endianness : Big
Codec ID : A_DTS
Duration : 2 h 3 min
Bit rate mode : Variable / Constant
Bit rate : 4 777 kb/s / 1 509 kb/s
Channel(s) : 8 channels / 6 channels
Channel positions : Front: L C R, Side: L R, Back: L R, LFE / Front: L C R, Side: L R, LFE
Sampling rate : 48.0 kHz
Frame rate : 93.750 FPS (512 spf)
Bit depth : 24 bits
Compression mode : Lossless / Lossy
Stream size : 4.13 GiB (41%)
Title : English DTS-HD MA 7.1
Language : English
Default : No
Forced : No

Audio #3
ID : 4
Format : DTS
Format/Info : Digital Theater Systems
Mode : 16
Format settings, Endianness : Big
Codec ID : A_DTS
Duration : 2 h 3 min
Bit rate mode : Constant
Bit rate : 1 509 kb/s
Channel(s) : 6 channels
Channel positions : Front: L C R, Side: L R, LFE
Sampling rate : 48.0 kHz
Frame rate : 93.750 FPS (512 spf)
Bit depth : 24 bits
Compression mode : Lossy
Stream size : 1.30 GiB (13%)
Title : English
Language : English
Default : No
Forced : No

Text #1
ID : 5
Format : VobSub
Muxing mode : zlib
Codec ID : S_VOBSUB
Codec ID/Info : Picture based subtitle format used on DVDs
Duration : 2 h 2 min
Bit rate : 1 407 b/s
Count of elements : 1323
Stream size : 1.24 MiB (0%)
Title : Thai 480p
Language : Thai
Default : No
Forced : No

Text #2
ID : 6
Format : VobSub
Muxing mode : zlib
Codec ID : S_VOBSUB
Codec ID/Info : Picture based subtitle format used on DVDs
Duration : 2 h 2 min
Bit rate : 2 561 b/s
Count of elements : 1323
Stream size : 2.25 MiB (0%)
Title : Thai 720p
Language : Thai
Default : No
Forced : No

Text #3
ID : 7
Format : VobSub
Muxing mode : zlib
Codec ID : S_VOBSUB
Codec ID/Info : Picture based subtitle format used on DVDs
Duration : 2 h 2 min
Bit rate : 4 144 b/s
Count of elements : 1323
Stream size : 3.64 MiB (0%)
Title : Thai 1080p Master
Language : Thai
Default : Yes
Forced : Yes

Text #4
ID : 8
Format : VobSub
Muxing mode : zlib
Codec ID : S_VOBSUB
Codec ID/Info : Picture based subtitle format used on DVDs
Duration : 2 h 2 min
Bit rate : 4 139 b/s
Count of elements : 1323
Stream size : 3.64 MiB (0%)
Title : Thai 1080p Yellow
Language : Thai
Default : No
Forced : No

Text #5
ID : 9
Format : VobSub
Muxing mode : zlib
Codec ID : S_VOBSUB
Codec ID/Info : Picture based subtitle format used on DVDs
Duration : 2 h 2 min
Bit rate : 4 153 b/s
Count of elements : 1323
Stream size : 3.65 MiB (0%)
Title : Thai 1080p Out
Language : Thai
Default : No
Forced : No

Text #6
ID : 10
Format : VobSub
Muxing mode : zlib
Codec ID : S_VOBSUB
Codec ID/Info : Picture based subtitle format used on DVDs
Duration : 2 h 2 min
Bit rate : 5 409 b/s
Count of elements : 1323
Stream size : 4.75 MiB (0%)
Title : Thai 1080p BIG
Language : Thai
Default : No
Forced : No

Text #7
ID : 11
Format : VobSub
Muxing mode : zlib
Codec ID : S_VOBSUB
Codec ID/Info : Picture based subtitle format used on DVDs
Duration : 2 h 2 min
Bit rate : 5 421 b/s
Count of elements : 1323
Stream size : 4.76 MiB (0%)
Title : Thai 1080p Out [BIG]
Language : Thai
Default : No
Forced : No

Text #8
ID : 12
Format : PGS
Muxing mode : zlib
Codec ID : S_HDMV/PGS
Codec ID/Info : Picture based subtitle format used on BDs/HD-DVDs
Duration : 2 h 2 min
Bit rate : 13.8 kb/s
Count of elements : 2646
Stream size : 12.1 MiB (0%)
Title : Thai PGS
Language : Thai
Default : No
Forced : No

Text #9
ID : 13
Format : PGS
Muxing mode : zlib
Codec ID : S_HDMV/PGS
Codec ID/Info : Picture based subtitle format used on BDs/HD-DVDs
Duration : 2 h 2 min
Bit rate : 14.1 kb/s
Count of elements : 2646
Stream size : 12.4 MiB (0%)
Title : Thai PGS Yellow
Language : Thai
Default : No
Forced : No

Text #10
ID : 14
Format : PGS
Muxing mode : zlib
Codec ID : S_HDMV/PGS
Codec ID/Info : Picture based subtitle format used on BDs/HD-DVDs
Duration : 2 h 2 min
Bit rate : 13.9 kb/s
Count of elements : 2646
Stream size : 12.2 MiB (0%)
Title : Thai PGS Out
Language : Thai
Default : No
Forced : No

Text #11
ID : 15
Format : PGS
Muxing mode : zlib
Codec ID : S_HDMV/PGS
Codec ID/Info : Picture based subtitle format used on BDs/HD-DVDs
Duration : 1 h 53 min
Bit rate : 16.1 kb/s
Count of elements : 2540
Stream size : 13.1 MiB (0%)
Title : English
Language : English
Default : No
Forced : No

Menu
00:00:00.000 : en:00:00:00.000
00:06:52.120 : en:00:06:52.120
00:14:07.889 : en:00:14:07.889
00:23:18.272 : en:00:23:18.272
00:29:38.026 : en:00:29:38.026
00:35:07.772 : en:00:35:07.772
00:44:08.437 : en:00:44:08.437
00:50:43.499 : en:00:50:43.499
00:56:18.625 : en:00:56:18.625
01:03:02.821 : en:01:03:02.821
01:11:17.398 : en:01:11:17.398
01:17:49.164 : en:01:17:49.164
01:27:03.051 : en:01:27:03.051
01:33:22.430 : en:01:33:22.430
01:40:51.796 : en:01:40:51.796
01:46:25.087 : en:01:46:25.087
01:52:49.888 : en:01:52:49.888



Quote:











Download: cornfile
http://cornfile.com/3z1wkookzcjh
Download: mekafile
http://www.mekafile.com/dl.php?f=3I51ecbVaAxv