+ Reply to Thread
Results 1 to 2 of 2
  1. #1
    Administrators Duckload.us's Avatar
    Join Date
    Dec 2010
    Posts
    107,197
    Thanks
    9
    Thanked 111,609 Times in 51,867 Posts

    Question [ฝรั่ง] Rampage (2018) [MKV HEVC 4K HDR10 Dolby Vision] [English : Dolby Atmos / Dolby TrueHD 7.1 Ch / HE-AAC 7.1 Ch] [พากย์ไทย : HE-AAC 5.1 Ch] [บรรยาย PGS : English / ไทย]



    Rampage (2018) [MKV HEVC 4K HDR10 Dolby Vision]
    [English : Dolby Atmos / Dolby TrueHD 7.1 Ch / HE-AAC 7.1 Ch] [พากย์ไทย : HE-AAC 5.1 Ch] [บรรยาย PGS : English / ไทย]

    เรื่องราวของนักวานรวิทยา ดาวิส โอโคเย (ดเวย์น จอห์นสัน) ชายผู้หลบเลี่ยงห่างไกลจากผู้คน เขามีสายสัมพันธ์อันแน่นแฟ้นที่ไม่มีวันสั่นคลอนกับ จอร์จ กอริล่า
    หลังเงินที่เฉลียวฉลาดยิ่งกว่ากอริลล่าทั่วไปที่เขาเ ป็นผู้เลี้ยงดูมาตั้งแต่มันเกิด แต่แล้วยีนส์แห่งความโหดร้ายในร่างมันได้เกิดการกลาย พันธุ์
    และเปลี่ยนกอริลล่าแสนสุภาพตัวนี้ให้กลายเป็นสิ่งมีช ีวิตที่โหดร้ายตัวใหญ่ยักษ์ ทุกสิ่งเลวร้ายยิ่งขึ้น เมื่อได้มีการค้นพบว่า แท้จริงแล้วยังมีสัตว์อื่นอีกมายมายที่เกิดการกลายพั นธุ์เช่นเดียวกัน
    พวกมันกลายเป็นนักล่าที่อยู่เหนือทุกชีวิตและมุ่งหน้ าสู่อเมริกาเหนือ ทำลายทุกสิ่งที่ขวางทางของพวกมัน กลุ่มของโอโคเยและนักพันธุวิศวกรรมผู้ไม่น่าเชื่อถือ ต้องปกป้องแอนติโดส
    ต่อสู้กับอุปสรรคขวากหนามและปัญหามากมายที่มาเยือนอย ่างไม่ซ้ำ ไม่เพียงเพื่อหยุดยั้งจุดจบของโลก ทว่าเพื่อช่วยสิ่งมีชีวิตที่น่าหวาดหวั่น ที่ครั้งหนึ่งเคยเป็นเพื่อนของเขาเอง!!!

    Code:
    General
    Complete name                  : Rampage (2018) [HEVC 4K HDR10 DV] [EN TrueHD 7.1 Atmos HE-AAC 7.1] [TH HE-AAC 5.1].mkv
    Format                         : Matroska
    Format version                 : Version 4
    File size                      : 10.1 GiB
    Duration                       : 1 h 47 min
    Overall bit rate mode          : Variable
    Overall bit rate               : 13.5 Mb/s
    Movie name                     : Rampage (2018) [MKV HEVC 4K HDR10 Dolby Vision] [EN TrueHD 7.1 Atmos / HE-AAC 7.1] [TH HE-AAC 5.1]
    Encoded date                   : UTC 2019-06-11 04:29:52
    Writing application            : mkvmerge v34.0.0 ('Sight and Seen') 64-bit
    Writing library                : libebml v1.3.7 + libmatroska v1.5.0
    
    Video #1
    ID                             : 1
    Format                         : HEVC
    Format/Info                    : High Efficiency Video Coding
    Commercial name                : HDR10
    Format profile                 : Main [email protected]@High
    Codec ID                       : V_MPEGH/ISO/HEVC
    Duration                       : 1 h 47 min
    Bit rate                       : 9 695 kb/s
    Width                          : 3 840 pixels
    Height                         : 2 160 pixels
    Display aspect ratio           : 16:9
    Frame rate mode                : Constant
    Frame rate                     : 23.976 (24000/1001) FPS
    Color space                    : YUV
    Chroma subsampling             : 4:2:0 (Type 2)
    Bit depth                      : 10 bits
    Bits/(Pixel*Frame)             : 0.049
    Stream size                    : 7.26 GiB (72%)
    Default                        : Yes
    Forced                         : No
    Color range                    : Limited
    Color primaries                : BT.2020
    Transfer characteristics       : PQ
    Matrix coefficients            : BT.2020 non-constant
    Mastering display color primar : Display P3
    Mastering display luminance    : min: 0.0001 cd/m2, max: 1000 cd/m2
    Maximum Content Light Level    : 494 cd/m2
    Maximum Frame-Average Light Le : 364 cd/m2
    
    Video #2
    ID                             : 2
    Format                         : HEVC
    Format/Info                    : High Efficiency Video Coding
    Commercial name                : HDR10
    Format profile                 : Main [email protected]@High
    Codec ID                       : V_MPEGH/ISO/HEVC
    Duration                       : 1 h 47 min
    Bit rate                       : 64.4 kb/s
    Width                          : 1 920 pixels
    Height                         : 1 080 pixels
    Display aspect ratio           : 16:9
    Frame rate mode                : Constant
    Frame rate                     : 23.976 (24000/1001) FPS
    Color space                    : YUV
    Chroma subsampling             : 4:2:0 (Type 2)
    Bit depth                      : 10 bits
    Bits/(Pixel*Frame)             : 0.001
    Stream size                    : 49.4 MiB (0%)
    Default                        : No
    Forced                         : Yes
    Color range                    : Limited
    Color primaries                : BT.2020
    Transfer characteristics       : PQ
    Matrix coefficients            : BT.2020 non-constant
    Mastering display color primar : Display P3
    Mastering display luminance    : min: 0.0001 cd/m2, max: 1000 cd/m2
    
    Audio #1
    ID                             : 3
    Format                         : MLP FBA 16-ch
    Format/Info                    : Meridian Lossless Packing FBA with 16-channel presentation
    Commercial name                : Dolby TrueHD with Dolby Atmos
    Codec ID                       : A_TRUEHD
    Duration                       : 1 h 47 min
    Bit rate mode                  : Variable
    Bit rate                       : 3 279 kb/s
    Maximum bit rate               : 5 205 kb/s
    Channel(s)                     : 8 channels
    Channel layout                 : L R C LFE Ls Rs Lb Rb
    Sampling rate                  : 48.0 kHz
    Frame rate                     : 1 200.000 FPS (40 SPF)
    Compression mode               : Lossless
    Stream size                    : 2.46 GiB (24%)
    Language                       : English
    Default                        : Yes
    Forced                         : No
    Number of dynamic objects      : 11
    Bed channel count              : 1 channel
    Bed channel configuration      : LFE
    
    Audio #2
    ID                             : 4
    Format                         : AAC LC SBR
    Format/Info                    : Advanced Audio Codec Low Complexity with Spectral Band Replication
    Commercial name                : HE-AAC
    Format settings                : Explicit
    Codec ID                       : A_AAC-2
    Duration                       : 1 h 47 min
    Bit rate                       : 199 kb/s
    Channel(s)                     : 8 channels
    Channel layout                 : C L R Ls Rs Lb Rb LFE
    Sampling rate                  : 48.0 kHz
    Frame rate                     : 23.438 FPS (2048 SPF)
    Compression mode               : Lossy
    Delay relative to video        : 36 ms
    Stream size                    : 153 MiB (1%)
    Language                       : English
    Default                        : No
    Forced                         : No
    
    Audio #3
    ID                             : 5
    Format                         : AAC LC SBR
    Format/Info                    : Advanced Audio Codec Low Complexity with Spectral Band Replication
    Commercial name                : HE-AAC
    Format settings                : Explicit
    Codec ID                       : A_AAC-2
    Duration                       : 1 h 47 min
    Bit rate                       : 150 kb/s
    Channel(s)                     : 6 channels
    Channel layout                 : C L R Ls Rs LFE
    Sampling rate                  : 48.0 kHz
    Frame rate                     : 23.438 FPS (2048 SPF)
    Compression mode               : Lossy
    Delay relative to video        : 36 ms
    Stream size                    : 115 MiB (1%)
    Language                       : Thai
    Default                        : No
    Forced                         : No
    
    Text #1
    ID                             : 6
    Format                         : PGS
    Muxing mode                    : zlib
    Codec ID                       : S_HDMV/PGS
    Codec ID/Info                  : Picture based subtitle format used on BDs/HD-DVDs
    Duration                       : 1 h 45 min
    Bit rate                       : 35.9 kb/s
    Count of elements              : 3088
    Stream size                    : 27.2 MiB (0%)
    Language                       : English
    Default                        : No
    Forced                         : No
    
    Text #2
    ID                             : 7
    Format                         : PGS
    Muxing mode                    : zlib
    Codec ID                       : S_HDMV/PGS
    Codec ID/Info                  : Picture based subtitle format used on BDs/HD-DVDs
    Duration                       : 1 h 46 min
    Bit rate                       : 29.8 kb/s
    Count of elements              : 2600
    Stream size                    : 22.7 MiB (0%)
    Language                       : Thai
    Default                        : No
    Forced                         : No
    
    Menu
    00:00:00.000                   : en:(01)00:00:00:000
    00:12:58.527                   : en:(02)00:12:58:527
    00:19:56.278                   : en:(03)00:19:56:278
    00:29:53.291                   : en:(04)00:29:53:291
    00:40:35.391                   : en:(05)00:40:35:391
    00:49:10.906                   : en:(06)00:49:10:906
    01:02:38.171                   : en:(07)01:02:38:171
    01:10:37.650                   : en:(08)01:10:37:650
    01:20:10.472                   : en:(09)01:20:10:472
    01:29:23.608                   : en:(10)01:29:23:608
    01:39:43.185                   : en:(11)01:39:43:185
    01:47:15.846                   : en:(12)01:47:15:846







    Download: cornfile
    http://cornfile.com/uju8lyteh8a1
    Download: mekafile
    http://www.mekafile.com/dl.php?f=Sx8c26bVb1wX

  2. The Following User Says Thank You to Duckload.us For This Useful Post:

    Wesker_TOT (06-13-2019)

  3. #2
    Senior Member
    Join Date
    Dec 2013
    Posts
    1,803
    Thanks
    3,745
    Thanked 0 Times in 0 Posts
    ขอบคุณนะครับ...

+ Reply to Thread

Thread Information

Users Browsing this Thread

There are currently 1 users browsing this thread. (0 members and 1 guests)

     

Posting Permissions

  • You may not post new threads
  • You may not post replies
  • You may not post attachments
  • You may not edit your posts