+ Reply to Thread
Results 1 to 3 of 3
  1. #1
    Administrators Duckload.us's Avatar
    Join Date
    Dec 2010
    Posts
    104,270
    Thanks
    9
    Thanked 107,486 Times in 50,715 Posts

    Angry (^อินโดนีเซีย*ใหม่*พากย์ไทยมาสเตอร์^)-Satan’s Slaves (Pengabdi Setan) (2017) เดี๋ยวแม่ลากไปลงนรก-(Super HQ)-[BluRay 1080p.x264]•[Sound Indo DTS 5.1/Thai AC3 5.1:MASTER::Modifide]•[SUB:Eng*SRT*]



    *** Satan’s Slaves (Pengabdi Setan) (2017) เดี๋ยวแม่ลากไปลงนรก ***

    • Satan’s Slave ‘เดี๋ยวแม่ลากไปลงนรก’ หรือชื่อต้นฉบับภาษาอินโดคือ Pengabdi Setan เป็นหนังสยองขวัญจากอินโดนีเซียที่สร้างกระแสความหลอ นอันดับ 1 ในทุกประเทศที่เข้าฉายมาแล้ว (เวอร์ชั่นนี้คือรีเมคมาจากของเดิมปี 1980 โดยฝีมือผู้กำกับ Joko Anwar) และจากตัวอย่างหนังที่ได้ดูก็รู้สึกได้ถึงบรรยากาศคว ามหลอนที่อบอวนสุดๆ
    • ตัวหนังมีบรรยากาศของหนังผีสูงมาก ทุกอย่างประกอบรวมกันออกมาได้หลอนสุดๆ โดยเฉพาะตัวละครแม่ น่ากลัวมากกกก ตอนยังไม่ตายก็ว่าน่ากลัวแล้ว ตายไปแล้วกลับมาหลอกนี่คือหลอนหนักมากกกกก
    ฉากผีหลอกถามว่าน่ากลัวแค่ไหน แต่ละฉากเต็ม 10 ให้ 10 เลย เหมือนดัดแปลงวิธีการหลอกเด็ดๆ มาจากหนังสยองขวัญดังๆ หลายเรื่อง ได้อารมณ์หนังผีของ เจมส์ วาน มาเต็มๆ แต่ออกมาในรูปแบบเอเชียบ้านเรา.. มันก็ทำให้หลอนติดตาไปได้หลายวันแน่ๆ คอหนังผีทั้งหลายไม่ควรมองข้ามไป

    ••• ♪ ♪ Sound Indonesian DTS 5.1/Thai AC3 5.1 ♪ ♪ •••
    ••• ไฟล์ 1080p คุณภาพสูง! •••
    ••• บรรยาย:อังกฤษ SRT ! •••
    (ซับ SRT สามารถเปลี่ยนแปลงอักษรบรรยายได้ตามที่ต้องการ สี/ขนาด/ตำแหน่ง/ลักษณะ-และอี่นๆ ซึ่งซับโดยทั่วไปทำไม่ได้เช่นpgs-vob sub ที่มาจาก DVDหรือ Bluray)
    เสียงไทย From Master.


    Pengabdi Setan (2017)
    1h 47min | Drama, Horror, Mystery | 8 March 2018 (Thailand)
    Director: Joko Anwar
    Writers: Joko Anwar, Sisworo Gautama Putra (based on a movie written by)
    Stars: Tara Basro, Bront Palarae, Dimas Aditya

    เรื่องราวสุดสยองที่เกิดขึ้นกับครอบครัวของ รินี่ หลังจากที่แม่ของเธอได้เสียชีวิตลง มีบางอย่างได้นำพาแม่ของพวกเธอกลับมาจากความตาย แม่ของเธอกลับมาด้วยเหตุผลบางอย่างที่สุดแสนจะคาดเดา ใครที่เข้ามาเกี่ยวข้องกลับต้องสังเวยด้วยชีวิต.

    Code:
    Format                      : Matroska
    Format version              : Version 4
    File size                   : 4.77 GiB
    Duration                    : 1 h 46 min
    Overall bit rate            : 6 436 kb/s
    Movie name                  : Satan's.Slaves.2017.1080p.BluRay.x264-[Super HQ]
    
    Video
    ID                          : 1
    Format                      : AVC
    Format/Info                 : Advanced Video Codec
    Format profile              : [email protected]
    Format settings             : CABAC / 4 Ref Frames
    Format settings, CABAC      : Yes
    Format settings, ReFrames   : 4 frames
    Codec ID                    : V_MPEG4/ISO/AVC
    Duration                    : 1 h 46 min
    Bit rate                    : 2 150 kb/s
    Width                       : 1 920 pixels
    Height                      : 800 pixels
    Display aspect ratio        : 2.40:1
    Frame rate mode             : Constant
    Frame rate                  : 24.000 FPS
    Color space                 : YUV
    Chroma subsampling          : 4:2:0
    Bit depth                   : 8 bits
    Scan type                   : Progressive
    Bits/(Pixel*Frame)          : 0.058
    Stream size                 : 1.59 GiB (33%)
    Writing library             : x264 core 155
    Default                     : Yes
    Forced                      : No
    
    Audio #1
    ID                          : 2
    Format                      : AC-3
    Format/Info                 : Audio Coding 3
    Commercial name             : Dolby Digital
    Codec ID                    : A_AC3
    Duration                    : 1 h 46 min
    Bit rate mode               : Constant
    Bit rate                    : 640 kb/s
    Channel(s)                  : 6 channels
    Channel layout              : L R C LFE Ls Rs
    Sampling rate               : 44.1 kHz
    Frame rate                  : 28.711 FPS (1536 SPF)
    Bit depth                   : 16 bits
    Compression mode            : Lossy
    Stream size                 : 486 MiB (10%)
    Title                       : 5.1 AC3-Thai 640k 486m
    Language                    : Thai
    Service kind                : Complete Main
    Default                     : Yes
    Forced                      : No
    
    Audio #2
    ID                          : 3
    Format                      : DTS
    Format/Info                 : Digital Theater Systems
    Codec ID                    : A_DTS
    Duration                    : 1 h 46 min
    Bit rate mode               : Constant
    Bit rate                    : 3 646 kb/s
    Channel(s)                  : 6 channels
    Channel layout              : C L R Ls Rs LFE
    Sampling rate               : 44.1 kHz
    Frame rate                  : 43.066 FPS (1024 SPF)
    Bit depth                   : 16 bits
    Compression mode            : Lossy
    Stream size                 : 2.70 GiB (57%)
    Title                       : dts 5.1-Ind 44100-2.70g
    Language                    : Indonesian
    Default                     : No
    Forced                      : No
    
    Text
    ID                          : 4
    Format                      : UTF-8
    Codec ID                    : S_TEXT/UTF8
    Codec ID/Info               : UTF-8 Plain Text
    Duration                    : 1 h 43 min
    Bit rate                    : 23 b/s
    Count of elements           : 801
    Stream size                 : 17.8 KiB (0%)
    Title                       : SRT
    Language                    : English
    Default                     : Yes
    Forced                      : No




    Download: cornfile
    http://cornfile.com/86bpfpjl5ryv
    Download: mekafile
    meka อัพไม่ได้ครับ หนังค่าย M

  2. The Following 2 Users Say Thank You to Duckload.us For This Useful Post:

    gaszolineskywalker (06-20-2019), Wesker_TOT (06-15-2019)

  3. #2
    Senior Member
    Join Date
    Dec 2013
    Posts
    1,661
    Thanks
    3,617
    Thanked 0 Times in 0 Posts
    ขอบคุณครับ...

  4. #3
    Senior Member
    Join Date
    Jun 2014
    Posts
    637
    Thanks
    0
    Thanked 0 Times in 0 Posts
    ขอบคุณมากครับ

+ Reply to Thread

Thread Information

Users Browsing this Thread

There are currently 1 users browsing this thread. (0 members and 1 guests)

     

Posting Permissions

  • You may not post new threads
  • You may not post replies
  • You may not post attachments
  • You may not edit your posts