*** Breaking & Exiting (2018) ***

˹ѧѧժ¹ФѺ :IMDb:5.6/ 10
Genre : Comedy
ѡʴ:Milo Gibson (ҷ Ժѹ), Jordan Hinson, Adam Huber
♪ ♪ Sound English DTS 5.1/Thai DYS 5.1 ♪ ♪
1080p سҾ٧!
:ѧ SRT !
(Ѻ SRT ö¹ŧѡúͧ /Ҵ/˹/ѡɳ- 觫Ѻ·价pgs-vob sub Ҩҡ DVD Bluray)
§ From Master.


reaking & Exiting (2018)
1h 18min | Comedy | 17 August 2018 (USA)
Director: Peter Facinelli
Writer: Jordan Hinson
Stars: Milo Gibson, Jordan Hinson, Adam Huber

Breaking & Exiting, Harry, a charming house thief, gets more than he bargains for during an attempted burglary when he stumbles upon Daisy and decides to save her from herself, sending both of them into a darkly comedic journey of self discovery and love.
Breaking & Exiting
Ǣ¨¡ҵҹʹ ҧѡѾ龺ഫѧЦҵǵ ҵѴԹ㨷ЪªԵͨҡͧ áзӢͧ觼ǡҷ駤ä鹾 ͧФѡ


Format : Matroska
Format version : Version 4
File size : 3.34 GiB
Duration : 1 h 18 min
Overall bit rate : 6 119 kb/s
Movie name : Breaking.&.Exiting.2018.1080p.BluRay-[Super HQ]

Video
ID : 1
Format : AVC
Format/Info : Advanced Video Codec
Format profile : [email protected]
Format settings : CABAC / 4 Ref Frames
Format settings, CABAC : Yes
Format settings, ReFrames : 4 frames
Codec ID : V_MPEG4/ISO/AVC
Duration : 1 h 18 min
Bit rate : 2 150 kb/s
Width : 1 920 pixels
Height : 784 pixels
Display aspect ratio : 2.40:1
Frame rate mode : Constant
Frame rate : 23.976 (24000/1001) FPS
Color space : YUV
Chroma subsampling : 4:2:0
Bit depth : 8 bits
Scan type : Progressive
Bits/(Pixel*Frame) : 0.060
Stream size : 1.17 GiB (35%)
Writing library : x264 core 152
Language : English
Default : Yes
Forced : No

Audio #1
ID : 2
Format : DTS
Format/Info : Digital Theater Systems
Codec ID : A_DTS
Duration : 1 h 18 min
Bit rate mode : Constant
Bit rate : 1 984 kb/s
Channel(s) : 6 channels
Channel layout : C L R Ls Rs LFE
Sampling rate : 24.0 kHz
Frame rate : 23.438 FPS (1024 SPF)
Bit depth : 16 bits
Compression mode : Lossy
Stream size : 1.08 GiB (32%)
Title : DTS 5.1-Thai 24000-1.08g
Language : Thai
Default : Yes
Forced : No

Audio #2
ID : 3
Format : DTS
Format/Info : Digital Theater Systems
Codec ID : A_DTS
Duration : 1 h 18 min
Bit rate mode : Constant
Bit rate : 1 984 kb/s
Channel(s) : 6 channels
Channel layout : C L R Ls Rs LFE
Sampling rate : 24.0 kHz
Frame rate : 23.438 FPS (1024 SPF)
Bit depth : 16 bits
Compression mode : Lossy
Stream size : 1.08 GiB (32%)
Title : DTS 5.1-Eng 24000-1.08g
Language : English
Default : No
Forced : No

Text #1
ID : 4
Format : UTF-8
Codec ID : S_TEXT/UTF8
Codec ID/Info : UTF-8 Plain Text
Duration : 1 h 13 min
Bit rate : 69 b/s
Count of elements : 1262
Stream size : 37.2 KiB (0%)
Title : SRT
Language : English
Default : Yes
Forced : No

Text #2
ID : 5
Format : UTF-8
Codec ID : S_TEXT/UTF8
Codec ID/Info : UTF-8 Plain Text
Duration : 1 h 14 min
Bit rate : 72 b/s
Count of elements : 1373
Stream size : 39.5 KiB (0%)
Title : SRT-Hearing Impaired=麡ͧҧ§
Language : English
Default : No
Forced : No






3.3 GB
http://cornfile.com/b1d9d0a6yywc
http://www.mekafile.com/dl.php?f=ZX1529bViKMI
1.7 GB
http://cornfile.com/2vlfcinzncfe
http://www.mekafile.com/dl.php?f=nu3100bViKF2