+ Reply to Thread
Results 1 to 3 of 3
  1. #1
    Administrators Duckload.us's Avatar
    Join Date
    Dec 2010
    Posts
    107,215
    Thanks
    9
    Thanked 111,622 Times in 51,872 Posts

    Question The.3rd.Eye.2.Դ ͧ Ҥ2.2019.INDONESIAN.1080p.NF.DDP5.1.x264 -WEB-DL.AC-3.1080p. [Modified]-[SOUNDTRACK + / ѧ ]





    ˹ѧThe 3rd Eye 2 Һʴա˹·к



    ͧ
    ѧҡͧǢͧªԵ (ԡ) ѴԹ㨷鹪Ե¡Եʶ §硡ӾҢͧҧѡ (ѵҺ) лҡҴ () ǡѺҹѧʧ ֡պҧҧԴԡѺʶҹ§ Ӿ ੾ҧ觹 (Һ) 硡ӾҤ˹觷ѴմǧҷԴ ҧ͹öԹ§֡Ѻͤ ͨҡǷءͧҹ Alia Nadia Դͧ֡Ѻ١ͤ ¾Ժѵԡ ҡй·ӼԴ˭лµǴ (നЪѺ) ԭҳ鹷١ѧͧҧ



    Video
    ID : 1
    Format : AVC
    Format/Info : Advanced Video Codec
    Format profile : [email protected]
    Format settings : CABAC / 4 Ref Frames
    Format settings, CABAC : Yes
    Format settings, ReFrames : 4 frames
    Codec ID : V_MPEG4/ISO/AVC
    Duration : 1 h 56 min
    Bit rate mode : Variable
    Bit rate : 3 805 kb/s
    Maximum bit rate : 20.0 Mb/s
    Width : 1 920 pixels
    Height : 1 080 pixels
    Display aspect ratio : 16:9
    Frame rate mode : Constant
    Frame rate : 24.000 FPS
    Color space : YUV
    Chroma subsampling : 4:2:0
    Bit depth : 8 bits
    Scan type : Progressive
    Bits/(Pixel*Frame) : 0.076
    Stream size : 3.10 GiB (86%)


    Audio
    ID : 2
    Format : E-AC-3
    Format/Info : Enhanced AC-3
    Commercial name : Dolby Digital Plus
    Codec ID : A_EAC3
    Duration : 1 h 56 min
    Bit rate mode : Constant
    Bit rate : 640 kb/s
    Channel(s) : 6 channels
    Channel layout : L R C LFE Ls Rs
    Sampling rate : 48.0 kHz
    Frame rate : 31.250 FPS (1536 SPF)
    Compression mode : Lossy
    Stream size : 534 MiB (14%)
    Service kind : Complete Main
    Default : Yes
    Forced : No


    Text #1
    ID : 3
    Format : UTF-8
    Codec ID : S_TEXT/UTF8
    Codec ID/Info : UTF-8 Plain Text
    Duration : 1 h 52 min
    Bit rate : 34 b/s
    Count of elements : 1115
    Stream size : 28.8 KiB (0%)
    Title : English
    Language : English
    Default : No
    Forced : No


    Text #2
    ID : 16
    Format : UTF-8
    Codec ID : S_TEXT/UTF8
    Codec ID/Info : UTF-8 Plain Text
    Duration : 1 h 52 min
    Bit rate : 71 b/s
    Count of elements : 819
    Stream size : 59.4 KiB (0%)
    Title : Thai
    Language : Thai
    Default : Yes
    Forced : No






    Download: cornfile
    http://cornfile.com/6cgm34b8barz
    Download: mekafile
    http://www.mekafile.com/dl.php?f=oy2916bVl6S9

  2. The Following User Says Thank You to Duckload.us For This Useful Post:

    Wesker_TOT (06-19-2019)

  3. #2
    Senior Member
    Join Date
    Jun 2014
    Posts
    1,027
    Thanks
    0
    Thanked 0 Times in 0 Posts
    ͺسҡѺ

  4. #3
    Senior Member
    Join Date
    Dec 2013
    Posts
    1,803
    Thanks
    3,745
    Thanked 0 Times in 0 Posts
    ͺسѺ...

Thread Information

Users Browsing this Thread

There are currently 1 users browsing this thread. (0 members and 1 guests)

     

Posting Permissions

  • You may not post new threads
  • You may not post replies
  • You may not post attachments
  • You may not edit your posts