+ Reply to Thread
Results 1 to 3 of 3
  1. #1
    Administrators Duckload.us's Avatar
    Join Date
    Dec 2010
    Posts
    104,358
    Thanks
    9
    Thanked 107,561 Times in 50,732 Posts

    Question (.ҡ )-Show Dogs (2018) ͡-(Super HQ)-[BluRay 1080p.x264][Sound Eng DTS 5.1/Thai AC3 5.1:MASTER.Modifide.] [SUB:Eng*SRT*]




    *** Show Dogs (2018) ͡ ***

    1080p سҾ٧!
    :ѧ SRT !
    (Ѻ SRT ö¹ŧѡúͧ /Ҵ/˹/ѡɳ- 觫Ѻ·价pgs-vob sub Ҩҡ DVD Bluray)
    § From Master.


    Show Dogs (2018)
    PG | 1h 32min | Adventure, Comedy, Family | 18 May 2018 (USA)
    Director: Raja Gosnell
    Writers: Max Botkin, Marc Hyman
    Stars: Will Arnett, Ludacris, Natasha Lyonne

    Max, a macho, solitary Rottweiler police dog is ordered to go undercover as a primped show dog in a prestigious Dog Show, along with his human partner, to avert a disaster from happening.
    硫عѢǨ Rottweiler ⴴѺ仫͹㹰ҹعѢʴ Ǿ¡ Dog Show ѹçõԾѺͧͻͧѹ Դ¾Ժѵ


    Format : Matroska
    Format version : Version 4
    File size : 3.44 GiB
    Duration : 1 h 30 min
    Overall bit rate : 5 435 kb/s
    Movie name : Show.Dogs.2018.1080p.Bluray.x264-[Super HQ]

    Video
    ID : 1
    Format : AVC
    Format/Info : Advanced Video Codec
    Format profile : [email protected]
    Format settings : CABAC / 4 Ref Frames
    Format settings, CABAC : Yes
    Format settings, Reference : 4 frames
    Codec ID : V_MPEG4/ISO/AVC
    Duration : 1 h 30 min
    Bit rate : 2 150 kb/s
    Width : 1 920 pixels
    Height : 1 024 pixels
    Display aspect ratio : 1.85:1
    Frame rate mode : Constant
    Frame rate : 23.976 (24000/1001) FPS
    Color space : YUV
    Chroma subsampling : 4:2:0
    Bit depth : 8 bits
    Scan type : Progressive
    Bits/(Pixel*Frame) : 0.046
    Stream size : 1.36 GiB (40%)
    Writing library : x264 core 152
    Language : English
    Default : Yes
    Forced : No

    Audio #1
    ID : 2
    Format : AC-3
    Format/Info : Audio Coding 3
    Commercial name : Dolby Digital
    Codec ID : A_AC3
    Duration : 1 h 30 min
    Bit rate mode : Constant
    Bit rate : 640 kb/s
    Channel(s) : 6 channels
    Channel layout : L R C LFE Ls Rs
    Sampling rate : 44.1 kHz
    Frame rate : 28.711 FPS (1536 SPF)
    Bit depth : 16 bits
    Compression mode : Lossy
    Stream size : 415 MiB (12%)
    Title : 5.1 AC3-640k 415m
    Language : Thai
    Service kind : Complete Main
    Default : Yes
    Forced : No

    Audio #2
    ID : 3
    Format : DTS
    Format/Info : Digital Theater Systems
    Codec ID : A_DTS
    Duration : 1 h 30 min
    Bit rate mode : Constant
    Bit rate : 2 646 kb/s
    Channel(s) : 6 channels
    Channel layout : C L R Ls Rs LFE
    Sampling rate : 32.0 kHz
    Frame rate : 31.250 FPS (1024 SPF)
    Bit depth : 16 bits
    Compression mode : Lossy
    Stream size : 1.67 GiB (49%)
    Title : dts 5.1-32000-1.67g
    Language : English
    Default : No
    Forced : No

    Text #1
    ID : 4
    Format : UTF-8
    Codec ID : S_TEXT/UTF8
    Codec ID/Info : UTF-8 Plain Text
    Duration : 1 h 24 min
    Bit rate : 91 b/s
    Count of elements : 1745
    Stream size : 56.8 KiB (0%)
    Title : SRT
    Language : English
    Default : Yes
    Forced : No

    Text #2
    ID : 5
    Format : UTF-8
    Codec ID : S_TEXT/UTF8
    Codec ID/Info : UTF-8 Plain Text
    Duration : 1 h 25 min
    Bit rate : 98 b/s
    Count of elements : 1852
    Stream size : 61.8 KiB (0%)
    Title : SRT-Hearing Impaired=麡ͧҧ§
    Language : English
    Default : No
    Forced : No







    Download: cornfile
    http://cornfile.com/a665mmle3zpt
    Download: mekafile
    http://www.mekafile.com/dl.php?f=Era61dbVstmv

  2. The Following 5 Users Say Thank You to Duckload.us For This Useful Post:

    apichartdear (06-19-2019), noi54 (06-22-2019), smakha (06-20-2019), Tellmon (06-19-2019), Wesker_TOT (06-20-2019)

  3. #2
    Senior Member
    Join Date
    Dec 2013
    Posts
    1,664
    Thanks
    3,620
    Thanked 0 Times in 0 Posts
    ͺسѺ...

  4. #3
    Senior Member
    Join Date
    Jun 2014
    Posts
    637
    Thanks
    0
    Thanked 0 Times in 0 Posts
    ͺسѺ

Thread Information

Users Browsing this Thread

There are currently 1 users browsing this thread. (0 members and 1 guests)

     

Posting Permissions

  • You may not post new threads
  • You may not post replies
  • You may not post attachments
  • You may not edit your posts