+ Reply to Thread
Results 1 to 2 of 2
  1. #1
    Administrators Duckload.us's Avatar
    Join Date
    Dec 2010
    Posts
    104,270
    Thanks
    9
    Thanked 107,486 Times in 50,715 Posts

    Question []-[* ͹ *][ Mini-HD 1080p ] Black Water (2018) Թ 索ǹá [ ҡ 5.1 + ѧ DTS-XLL ] [ + ѧ]-Blu-ray.DTS.1080p. [Modified]-[ҡ ]




    ͧ
    Action mainstays Jean-Claude Van Damme and Dolph Lundgren are reteaming for Black Water, an action thriller that centers on a deep cover operative (Van Damme) who awakens to find himself imprisoned in a CIA black site on a submarine.

    Format : MPEG-4
    Format profile : Base Media / Version 2
    Codec ID : mp42 (isom/iso2/avc1/mp41)
    File size : 5.98 GiB
    Duration : 1 h 44 min
    Overall bit rate mode : Variable
    Overall bit rate : 8 180 kb/s
    Encoded date : UTC 2019-06-19 03:08:39
    Tagged date : UTC 2019-06-19 03:08:39
    Writing application : HandBrake 1.1.2 2018090500

    Video
    ID : 1
    Format : AVC
    Format/Info : Advanced Video Codec
    Format profile : [email protected]
    Format settings : CABAC / 4 Ref Frames
    Format settings, CABAC : Yes
    Format settings, ReFrames : 4 frames
    Codec ID : avc1
    Codec ID/Info : Advanced Video Coding
    Duration : 1 h 44 min
    Bit rate : 4 500 kb/s
    Width : 1 920 pixels
    Height : 804 pixels
    Display aspect ratio : 2.40:1
    Frame rate mode : Variable
    Frame rate : 23.976 (24000/1001) FPS
    Minimum frame rate : 23.974 FPS
    Maximum frame rate : 23.981 FPS
    Color space : YUV
    Chroma subsampling : 4:2:0
    Bit depth : 8 bits
    Scan type : Progressive
    Bits/(Pixel*Frame) : 0.122
    Stream size : 3.24 GiB (54%)
    Writing library : x264 core 155 r2901 7d0ff22
    Encoding settings : cabac=1 / ref=3 / deblock=1:0:0 / analyse=0x3:0x113 / me=hex / subme=7 / psy=1 / psy_rd=1.00:0.00 / mixed_ref=1 / me_range=16 / chroma_me=1 / trellis=1 / 8x8dct=1 / cqm=0 / deadzone=21,11 / fast_pskip=1 / chroma_qp_offset=-2 / threads=12 / lookahead_threads=2 / sliced_threads=0 / nr=0 / decimate=1 / interlaced=0 / bluray_compat=0 / constrained_intra=0 / bframes=3 / b_pyramid=2 / b_adapt=1 / b_bias=0 / direct=1 / weightb=1 / open_gop=0 / weightp=2 / keyint=240 / keyint_min=24 / scenecut=40 / intra_refresh=0 / rc_lookahead=40 / rc=abr / mbtree=1 / bitrate=4500 / ratetol=1.0 / qcomp=0.60 / qpmin=0 / qpmax=69 / qpstep=4 / vbv_maxrate=62500 / vbv_bufsize=78125 / nal_hrd=none / filler=0 / ip_ratio=1.40 / aq=1:1.00
    Encoded date : UTC 2019-06-19 03:08:39
    Tagged date : UTC 2019-06-19 03:08:39
    Color range : Limited
    Color primaries : BT.709
    Transfer characteristics : BT.709
    Matrix coefficients : BT.709
    Codec configuration box : avcC

    Audio #1
    ID : 2
    Format : AAC LC
    Format/Info : Advanced Audio Codec Low Complexity
    Codec ID : mp4a-40-2
    Duration : 1 h 44 min
    Bit rate mode : Variable
    Bit rate : 447 kb/s
    Channel(s) : 6 channels
    Channel layout : C L R Ls Rs LFE
    Sampling rate : 48.0 kHz
    Frame rate : 46.875 FPS (1024 SPF)
    Compression mode : Lossy
    Stream size : 334 MiB (5%)
    Title : Surround / Surround
    Language : Thai
    Default : Yes
    Alternate group : 1
    Encoded date : UTC 2019-06-19 03:08:39
    Tagged date : UTC 2019-06-19 03:08:39
    Fallback From : 4

    Audio #2
    ID : 3
    Format : AAC LC
    Format/Info : Advanced Audio Codec Low Complexity
    Codec ID : mp4a-40-2
    Duration : 1 h 44 min
    Bit rate mode : Variable
    Bit rate : 447 kb/s
    Channel(s) : 6 channels
    Channel layout : C L R Ls Rs LFE
    Sampling rate : 48.0 kHz
    Frame rate : 46.875 FPS (1024 SPF)
    Compression mode : Lossy
    Stream size : 334 MiB (5%)
    Title : Surround / Surround
    Language : English
    Default : No
    Alternate group : 1
    Encoded date : UTC 2019-06-19 03:08:39
    Tagged date : UTC 2019-06-19 03:08:39
    Fallback From : 5,6

    Audio #3
    ID : 4
    Format : AC-3
    Format/Info : Audio Coding 3
    Commercial name : Dolby Digital
    Codec ID : ac-3
    Duration : 1 h 44 min
    Bit rate mode : Constant
    Bit rate : 448 kb/s
    Channel(s) : 6 channels
    Channel layout : L R C LFE Ls Rs
    Sampling rate : 48.0 kHz
    Frame rate : 31.250 FPS (1536 SPF)
    Bit depth : 16 bits
    Compression mode : Lossy
    Stream size : 335 MiB (5%)
    Title : Surround / Surround
    Language : Thai
    Service kind : Complete Main
    Default : Inherited From: 2
    Alternate group : 1
    Encoded date : UTC 2019-06-19 03:08:39
    Tagged date : UTC 2019-06-19 03:08:39
    Fallback To : 2

    Audio #4
    ID : 5
    Format : AC-3
    Format/Info : Audio Coding 3
    Commercial name : Dolby Digital
    Codec ID : ac-3
    Duration : 1 h 44 min
    Bit rate mode : Constant
    Bit rate : 448 kb/s
    Channel(s) : 6 channels
    Channel layout : L R C LFE Ls Rs
    Sampling rate : 48.0 kHz
    Frame rate : 31.250 FPS (1536 SPF)
    Bit depth : 16 bits
    Compression mode : Lossy
    Stream size : 335 MiB (5%)
    Title : Surround / Surround
    Language : English
    Service kind : Complete Main
    Default : No
    Alternate group : 1
    Encoded date : UTC 2019-06-19 03:08:39
    Tagged date : UTC 2019-06-19 03:08:39
    Fallback To : 3

    Audio #5
    ID : 6
    Format : DTS XLL
    Format/Info : Digital Theater Systems
    Commercial name : DTS-HD Master Audio
    Codec ID : mp4a-A9
    Duration : 1 h 44 min
    Bit rate mode : Variable
    Bit rate : 1 910 kb/s
    Channel(s) : 6 channels
    Channel layout : C L R Ls Rs LFE
    Sampling rate : 48.0 kHz
    Frame rate : 93.750 FPS (512 SPF)
    Bit depth : 16 bits
    Compression mode : Lossless
    Stream size : 1.40 GiB (23%)
    Title : Surround / Surround
    Language : English
    Default : No
    Alternate group : 1
    Encoded date : UTC 2019-06-19 03:08:39
    Tagged date : UTC 2019-06-19 03:08:39
    Fallback To : 3

    Text #1
    ID : 7
    Format : VobSub
    Codec ID : mp4s-E0
    Codec ID/Info : The same subtitle format used on DVDs
    Duration : 1 h 41 min
    Bit rate mode : Variable
    Bit rate : 8 884 b/s
    Stream size : 6.47 MiB (0%)
    Language : Thai
    Default : Yes
    Forced : No
    Alternate group : 3
    Encoded date : UTC 2019-06-19 03:08:39
    Tagged date : UTC 2019-06-19 03:08:39

    Text #2
    ID : 8
    Format : VobSub
    Codec ID : mp4s-E0
    Codec ID/Info : The same subtitle format used on DVDs
    Duration : 1 h 41 min
    Bit rate mode : Variable
    Bit rate : 7 346 b/s
    Stream size : 5.32 MiB (0%)
    Language : English
    Default : No
    Forced : No
    Alternate group : 3
    Encoded date : UTC 2019-06-19 03:08:39
    Tagged date : UTC 2019-06-19 03:08:39







    6.0 GB
    http://cornfile.com/6n2mkmdh11p1
    http://www.mekafile.com/dl.php?f=ega289bVvae3

    3.9 GB
    http://cornfile.com/mrphvmj6ko4k
    http://www.mekafile.com/dl.php?f=FM3f46bVviby

  2. The Following 4 Users Say Thank You to Duckload.us For This Useful Post:

    apichartdear (06-20-2019), NaiWan (06-28-2019), noi54 (06-22-2019), smakha (06-24-2019)

  3. #2
    Senior Member
    Join Date
    Jun 2014
    Posts
    637
    Thanks
    0
    Thanked 0 Times in 0 Posts
    ͺسѺ

Thread Information

Users Browsing this Thread

There are currently 1 users browsing this thread. (0 members and 1 guests)

     

Posting Permissions

  • You may not post new threads
  • You may not post replies
  • You may not post attachments
  • You may not edit your posts