+ Reply to Thread
Results 1 to 1 of 1
  1. #1
    Administrators Duckload.us's Avatar
    Join Date
    Dec 2010
    Posts
    104,359
    Thanks
    9
    Thanked 107,569 Times in 50,736 Posts

    Question [ฝรั่ง]-[* ใหม่ร้อนๆ *] The Nutcracker and the Four Realms (2018) เดอะนัทแครกเกอร์กับสี่อาณาจักรมหัศจรรย์ 4k [ พากย์ไทยมาสเตอร์ + อังกฤษ DTS-XLL] • [บรรยายไทย + อังกฤษ]-4K Blu-ray.DTS.2160p. [Modified]-[พากย์ไทย บรรยายไทย]



    ท่องไปในสี่อาณาจักรมหัศจรรย์กับเจ้าหญิงคลาร่า เพื่อค้นหาความลึกลับที่กำลังจะถูกเปิดเผย พบกับภาพยนตร์แฟนตาซีส่งท้ายปี 2018 จากดิสนีย์ นำโดยแมคเคนซี่ ฟอย และเคียร่า ไนต์ลี่ย์ Disney’s The Nutcracker And The Four Realms เดอะนัทแครกเกอร์กับสี่อาณาจักรมหัศจรรย์ เรื่องราวสุดมหัศจรรย์ในคืนก่อนวันคริสต์มาสที่เกิดข ึ้นกับ คลาร่า และกุญแจปริศนาที่จะไขความลับในกล่องใส่ของขวัญที่ปร ะเมินค่าไม่ได้ จากแม่ผู้จากไป ด้ายสีทองที่ถูกมอบให้เธอในงานปาร์ตี้วันหยุดประจำปี ของพ่อทูนหัว ดรอสเซลเมเยอร์ นำเธอไปสู่กุญแจที่ปรารถนา ที่หายวับไปอย่างรวดเร็วสู่โลกคู่ขนานอันลึกลับและแป ลกประหลาด ที่นั่นเองที่คลาร่าได้พบกับนายทหารที่ชื่อ ฟิลิปส์, แก๊งหนูและเหล่าผู้ดูแลทั้ง 3 อาณาจักร: ดินแดนแห่งเกล็ดหิมะ ดินแดนแห่งดอกไม้ และดินแดนแห่งขนมหวาน คลาร่าและฟิลิปส์ต้องรวบรวมความกล้าเพื่อเข้าสู่ดินแ ดนที่ 4 ที่แสนอันตราย ที่พำนักของคุณแม่จินเจอร์ จอมเผด็จการ เพื่อชิงกุญแจของคลาร่าคืนมาและหวังจะคืนความสงบสุขใ ห้กับโลกที่ไม่แน่นอนนี้

    Format : MPEG-4
    Format profile : Base Media / Version 2
    Codec ID : mp42 (isom/iso2/avc1/mp41)
    File size : 13.6 GiB
    Duration : 1 h 39 min
    Overall bit rate mode : Variable
    Overall bit rate : 19.7 Mb/s
    Encoded date : UTC 2019-06-20 09:33:16
    Tagged date : UTC 2019-06-20 09:33:16
    Writing application : HandBrake 1.1.2 2018090500

    Video
    ID : 1
    Format : AVC
    Format/Info : Advanced Video Codec
    Format profile : [email protected]
    Format settings : CABAC / 1 Ref Frames
    Format settings, CABAC : Yes
    Format settings, ReFrames : 1 frame
    Codec ID : avc1
    Codec ID/Info : Advanced Video Coding
    Duration : 1 h 39 min
    Bit rate : 15.0 Mb/s
    Width : 3 840 pixels
    Height : 2 076 pixels
    Display aspect ratio : 1.85:1
    Frame rate mode : Variable
    Frame rate : 23.976 (24000/1001) FPS
    Minimum frame rate : 23.974 FPS
    Maximum frame rate : 23.981 FPS
    Color space : YUV
    Chroma subsampling : 4:2:0
    Bit depth : 8 bits
    Scan type : Progressive
    Bits/(Pixel*Frame) : 0.078
    Stream size : 10.3 GiB (76%)
    Writing library : x264 core 155 r2901 7d0ff22
    Encoding settings : cabac=1 / ref=1 / deblock=1:0:0 / analyse=0x3:0x113 / me=hex / subme=7 / psy=1 / psy_rd=1.00:0.00 / mixed_ref=0 / me_range=16 / chroma_me=1 / trellis=1 / 8x8dct=1 / cqm=0 / deadzone=21,11 / fast_pskip=1 / chroma_qp_offset=-2 / threads=12 / lookahead_threads=2 / sliced_threads=0 / nr=0 / decimate=1 / interlaced=0 / bluray_compat=0 / constrained_intra=0 / bframes=0 / weightp=2 / keyint=240 / keyint_min=24 / scenecut=40 / intra_refresh=0 / rc_lookahead=40 / rc=abr / mbtree=1 / bitrate=15000 / ratetol=1.0 / qcomp=0.60 / qpmin=0 / qpmax=69 / qpstep=4 / vbv_maxrate=62500 / vbv_bufsize=78125 / nal_hrd=none / filler=0 / ip_ratio=1.40 / aq=1:1.00
    Encoded date : UTC 2019-06-20 09:33:16
    Tagged date : UTC 2019-06-20 09:33:16
    Color range : Limited
    Color primaries : BT.709
    Transfer characteristics : BT.709
    Matrix coefficients : BT.709
    Codec configuration box : avcC

    Audio #1
    ID : 2
    Format : AAC LC
    Format/Info : Advanced Audio Codec Low Complexity
    Codec ID : mp4a-40-2
    Duration : 1 h 39 min
    Bit rate mode : Variable
    Bit rate : 192 kb/s
    Channel(s) : 2 channels
    Channel layout : L R
    Sampling rate : 48.0 kHz
    Frame rate : 46.875 FPS (1024 SPF)
    Compression mode : Lossy
    Stream size : 136 MiB (1%)
    Title : Stereo / Stereo
    Language : Thai
    Default : Yes
    Alternate group : 1
    Encoded date : UTC 2019-06-20 09:33:16
    Tagged date : UTC 2019-06-20 09:33:16

    Audio #2
    ID : 3
    Format : AAC LC
    Format/Info : Advanced Audio Codec Low Complexity
    Codec ID : mp4a-40-2
    Duration : 1 h 39 min
    Bit rate mode : Variable
    Bit rate : 448 kb/s
    Channel(s) : 6 channels
    Channel layout : C L R Ls Rs LFE
    Sampling rate : 48.0 kHz
    Frame rate : 46.875 FPS (1024 SPF)
    Compression mode : Lossy
    Stream size : 318 MiB (2%)
    Title : Surround / Surround
    Language : English
    Default : No
    Alternate group : 1
    Encoded date : UTC 2019-06-20 09:33:16
    Tagged date : UTC 2019-06-20 09:33:16

    Audio #3
    ID : 4
    Format : AC-3
    Format/Info : Audio Coding 3
    Commercial name : Dolby Digital
    Codec ID : ac-3
    Duration : 1 h 39 min
    Bit rate mode : Constant
    Bit rate : 640 kb/s
    Channel(s) : 6 channels
    Channel layout : L R C LFE Ls Rs
    Sampling rate : 48.0 kHz
    Frame rate : 31.250 FPS (1536 SPF)
    Bit depth : 16 bits
    Compression mode : Lossy
    Stream size : 454 MiB (3%)
    Title : Surround / Surround
    Language : English
    Service kind : Complete Main
    Default : No
    Alternate group : 1
    Encoded date : UTC 2019-06-20 09:33:16
    Tagged date : UTC 2019-06-20 09:33:16

    Audio #4
    ID : 5
    Format : DTS XLL
    Format/Info : Digital Theater Systems
    Commercial name : DTS-HD Master Audio
    Codec ID : mp4a-A9
    Duration : 1 h 39 min
    Bit rate mode : Variable
    Bit rate : 3 490 kb/s
    Channel(s) : 8 channels
    Channel layout : C L R LFE Lb Rb Lss Rss
    Sampling rate : 48.0 kHz
    Frame rate : 93.750 FPS (512 SPF)
    Bit depth : 24 bits
    Compression mode : Lossless
    Stream size : 2.42 GiB (18%)
    Title : Surround / Surround
    Language : English
    Default : No
    Alternate group : 1
    Encoded date : UTC 2019-06-20 09:33:16
    Tagged date : UTC 2019-06-20 09:33:16

    Text #1
    ID : 6
    Format : VobSub
    Codec ID : mp4s-E0
    Codec ID/Info : The same subtitle format used on DVDs
    Duration : 1 h 35 min
    Bit rate mode : Variable
    Bit rate : 7 400 b/s
    Stream size : 5.04 MiB (0%)
    Language : Thai
    Default : Yes
    Forced : No
    Alternate group : 3
    Encoded date : UTC 2019-06-20 09:33:16
    Tagged date : UTC 2019-06-20 09:33:16

    Text #2
    ID : 7
    Format : VobSub
    Codec ID : mp4s-E0
    Codec ID/Info : The same subtitle format used on DVDs
    Duration : 1 h 28 min
    Bit rate mode : Variable
    Bit rate : 8 067 b/s
    Stream size : 5.12 MiB (0%)
    Language : English
    Default : No
    Forced : No
    Alternate group : 3
    Encoded date : UTC 2019-06-20 09:33:16
    Tagged date : UTC 2019-06-20 09:33:16




    Download: cornfile
    http://cornfile.com/zksgmeahwqf2
    Download: mekafile
    http://www.mekafile.com/dl.php?f=T96964bVxHXJ

  2. The Following User Says Thank You to Duckload.us For This Useful Post:

    mahns8f2u (07-06-2019)

+ Reply to Thread

Thread Information

Users Browsing this Thread

There are currently 1 users browsing this thread. (0 members and 1 guests)

     

Posting Permissions

  • You may not post new threads
  • You may not post replies
  • You may not post attachments
  • You may not edit your posts