Quote:
หมายเหตุ : ขอขอบคุณเสียงไทยและซับไทยจากคุณ pattapol



Quote:
Toy Story (1995) ทอย สตอรี่
เรื่องย่อ : ทอย สตอรี่ คือภาพยนตร์คอมพิวเตอร์แอนิเมชั่นขนาดยาวเรื่องแรก และกลายเป็นผลงานสุดฮิต ทั้งยังสร้างความประทับใจให้แก่ผู้ชมทั่วโลก
ในฐานะของเล่นตัวโปรด ของแอนดี้ เด็กชายวัย 6 ขวบ ทำให้วูดี้กลายเป็นหัวหน้าบรรดาของเล่น ด้วยความมาดมั่น
แต่เมื่อบัซ ไลท์เยียร์ ตุ๊กตาตำรวจอวกาศก้าวเข้าในถิ่นของวูดี้ ในฐานะของขวัญวันเกิดชิ้นโปรดของแอนดี้ การชิงดีชิงเด่น
เพื่อเป็นขวัญใจ ของเจ้านายตัวน้อยจึงเกิดขึ้น และส่งผลให้ทั้งคู่ต้องตกไปอยู่ในบ้านของซิด เด็กชายข้างบ้านผู้รักที่จะทำลายของเล่นเป็นชีวิตจิต ใจ
และการร่วมมือระหว่างวูดี้กับบัซ เพื่อหลบหนีกลับมานี่เองที่ทำให้พวกเขาตระหนักถึงมิต รแท้!
เต็มเปี่ยมด้วยความบันเทิง อบอุ่นใจ และเพลงไพเราะ ทอย สตอรี่ ภาพยนตร์ที่กลายเป็นประวัติศาสตร์บันเทิงเจ้าของรางว ัลออสการ์พิเศษเรื่องนี้
พร้อมให้คุณเป็นเจ้าของแล้ว เพื่อความสุขที่หยิบชมได้ซ้ำแล้วซ้ำเล่า!!!



*ดู INFO Report คลิ๊ก!*Quote:

Toy Story (1995) ทอย สตอรี่
Video
ID : 1
Format : AVC
Format/Info : Advanced Video Codec
Format profile : [email protected]
Format settings, CABAC : Yes
Format settings, RefFrames : 4 frames
Codec ID : V_MPEG4/ISO/AVC
Duration : 1 h 21 min
Bit rate : 2 500 kb/s
Width : 1 920 pixels
Height : 1 080 pixels
Display aspect ratio : 16:9
Frame rate mode : Constant
Frame rate : 23.976 (23976/1000) FPS
Color space : YUV
Chroma subsampling : 4:2:0
Bit depth : 8 bits
Scan type : Progressive
Bits/(Pixel*Frame) : 0.050
Stream size : 1.42 GiB (66%)
Title : Toy.Story.1995.1080p.BluRay.x264.AC3.THM5.1_HeRMin eZ
Writing library : x264 core 152 r2851M ba24899
Encoding settings : cabac=1 / ref=4 / deblock=1:-1:-1 / analyse=0x3:0x113 / me=umh / subme=9 / psy=1 / psy_rd=1.00:0.15 / mixed_ref=1 / me_range=24 / chroma_me=1 / trellis=2 / 8x8dct=1 / cqm=0 / deadzone=21,11 / fast_pskip=1 / chroma_qp_offset=-3 / threads=32 / lookahead_threads=4 / sliced_threads=0 / nr=0 / decimate=1 / interlaced=0 / bluray_compat=0 / constrained_intra=0 / bframes=3 / b_pyramid=2 / b_adapt=2 / b_bias=0 / direct=3 / weightb=1 / open_gop=0 / weightp=2 / keyint=250 / keyint_min=25 / scenecut=40 / intra_refresh=0 / rc_lookahead=50 / rc=2pass / mbtree=1 / bitrate=2500 / ratetol=1.0 / qcomp=0.60 / qpmin=0 / qpmax=69 / qpstep=4 / cplxblur=20.0 / qblur=0.5 / vbv_maxrate=31250 / vbv_bufsize=31250 / nal_hrd=none / filler=0 / ip_ratio=1.40 / aq=3:1.00
Default : Yes
Forced : No

Audio #1
ID : 2
Format : AC-3
Format/Info : Audio Coding 3
Format settings, Endianness : Big
Codec ID : A_AC3
Duration : 1 h 21 min
Bit rate mode : Constant
Bit rate : 640 kb/s
Channel(s) : 6 channels
Channel positions : Front: L C R, Side: L R, LFE
Sampling rate : 48.0 kHz
Frame rate : 31.250 FPS (1536 SPF)
Bit depth : 16 bits
Compression mode : Lossy
Delay relative to video : 101 ms
Stream size : 371 MiB (17%)
Title : Thai BluRay Master 5.1 @640 Kbps
Language : Thai
Service kind : Complete Main
Default : Yes
Forced : No

Audio #2
ID : 3
Format : AC-3
Format/Info : Audio Coding 3
Format settings, Endianness : Big
Codec ID : A_AC3
Duration : 1 h 21 min
Bit rate mode : Constant
Bit rate : 640 kb/s
Channel(s) : 6 channels
Channel positions : Front: L C R, Side: L R, LFE
Sampling rate : 48.0 kHz
Frame rate : 31.250 FPS (1536 SPF)
Bit depth : 16 bits
Compression mode : Lossy
Stream size : 371 MiB (17%)
Title : English 5.1 @640 Kbps
Language : English
Service kind : Complete Main
Default : No
Forced : No

Text #1
ID : 4
Format : VobSub
Muxing mode : zlib
Codec ID : S_VOBSUB
Codec ID/Info : Picture based subtitle format used on DVDs
Duration : 1 h 16 min
Bit rate : 4 120 b/s
Count of elements : 1118
Stream size : 2.24 MiB (0%)
Title : Thai 480p
Language : Thai
Default : No
Forced : No

Text #2
ID : 5
Format : VobSub
Muxing mode : zlib
Codec ID : S_VOBSUB
Codec ID/Info : Picture based subtitle format used on DVDs
Duration : 1 h 16 min
Bit rate : 7 323 b/s
Count of elements : 1118
Stream size : 3.99 MiB (0%)
Title : Thai 720p
Language : Thai
Default : No
Forced : No

Text #3
ID : 6
Format : VobSub
Muxing mode : zlib
Codec ID : S_VOBSUB
Codec ID/Info : Picture based subtitle format used on DVDs
Duration : 1 h 16 min
Bit rate : 12.3 kb/s
Count of elements : 1118
Stream size : 6.71 MiB (0%)
Title : Thai 1080p BluRay Master
Language : Thai
Default : Yes
Forced : No

Text #4
ID : 7
Format : PGS
Muxing mode : zlib
Codec ID : S_HDMV/PGS
Codec ID/Info : Picture based subtitle format used on BDs/HD-DVDs
Duration : 1 h 16 min
Bit rate : 41.8 kb/s
Count of elements : 2246
Stream size : 22.7 MiB (1%)
Title : Thai PGS BluRay Master
Language : Thai
Default : No
Forced : No

Text #5
ID : 8
Format : PGS
Muxing mode : zlib
Codec ID : S_HDMV/PGS
Codec ID/Info : Picture based subtitle format used on BDs/HD-DVDs
Duration : 1 h 19 min
Bit rate : 43.6 kb/s
Count of elements : 2288
Stream size : 24.9 MiB (1%)
Title : English
Language : English
Default : No
Forced : No

Menu
00:00:00.000 : :Chapter 1
00:04:59.418 : :Chapter 2
00:10:00.051 : :Chapter 3
00:14:59.267 : :Chapter 4
00:19:59.734 : :Chapter 5
00:24:59.158 : :Chapter 6
00:29:59.750 : :Chapter 7
00:35:00.091 : :Chapter 8
00:39:59.432 : :Chapter 9
00:44:59.148 : :Chapter 10
00:49:59.657 : :Chapter 11
00:54:59.998 : :Chapter 12
00:59:59.381 : :Chapter 13
01:04:59.889 : :Chapter 14
01:09:59.439 : :Chapter 15
01:14:59.697 : :Chapter 16
01:20:00.122 : :Chapter 17



Quote:







Quote:
Toy Story 2 (1999) ทอย สตอรี่ 2
เรื่องย่อ : ทอย สตอรี่ 2 ภาพยนตร์ยอดเยี่ยมรางวัลลูกโลกทองคำเรื่องนี้ กลายเป็นขวัญใจของผู้ชมทั่วโลก เมื่อครั้งที่ออกฉาย และขึ้นทำเนียบหนังคลาสสิคได้ในทันที
เวลานี้ ทอย สตอรี่ 2 ในรูปแบบ 1 ดิสค์ สำหรับนักสะสม ได้รับการปรับปรุงใหม่หมดจดทั้งภาพ และระบบเสียง ให้เป็นภาพยนตร์แอนิเมชั่นผจญภัยที่ดี เยี่ยมยิ่งกว่าที่คุณเคยสัมผัสมาแล้ว!
ในระหว่างที่แอนดี้ไปเข้าค่ายฤดูร้อน วูดี้ถูกอัล นักสะสมของเล่นจอมละโมบขโมยไป เพื่อเก็บให้ครบชุดคอลเล็คชั่นราวด์อัพแก๊ง ซึ่งกลายเป็นของหายากในปัจจุบัน
เวลานี้ วูดี้ พร้อมด้วยเจสซี่, บูลส์อาย และคุณลุงนักขุดทอง กำลังจะได้ไปอยู่ในพิพิธภัณฑ์ ซึ่งวูดี้จะได้ใช้ชีวิตที่เหลือทั้งหมดของเขาในตู้กร ะจกไปตลอดกาล มันขึ้นอยู่กับบัซ,
มิสเตอร์โปเตโต้เฮด, แฮม, เร็กซ์ และสลิงกี้ด็อก ที่จะช่วยเพื่อนเขากลับมาและย้ำเตือนสติวูดี้ว่าการเ ป็นของเล่นที่แท้จริงนั้นคืออะไร!!!



*ดู INFO Report คลิ๊ก!*Quote:

Toy Story 2 (1999) ทอย สตอรี่ 2
Video
ID : 1
Format : AVC
Format/Info : Advanced Video Codec
Format profile : [email protected]
Format settings, CABAC : Yes
Format settings, RefFrames : 4 frames
Codec ID : V_MPEG4/ISO/AVC
Duration : 1 h 32 min
Bit rate : 2 500 kb/s
Width : 1 920 pixels
Height : 1 080 pixels
Display aspect ratio : 16:9
Frame rate mode : Constant
Frame rate : 23.976 (24000/1001) FPS
Original frame rate : 23.976 (23976/1000) FPS
Color space : YUV
Chroma subsampling : 4:2:0
Bit depth : 8 bits
Scan type : Progressive
Bits/(Pixel*Frame) : 0.050
Stream size : 1.61 GiB (66%)
Title : Toy.Story.2.1999.1080p.BluRay.x264.AC3.THM5.1_HeRM ineZ
Writing library : x264 core 152 r2851M ba24899
Encoding settings : cabac=1 / ref=4 / deblock=1:-1:-1 / analyse=0x3:0x113 / me=umh / subme=9 / psy=1 / psy_rd=1.00:0.15 / mixed_ref=1 / me_range=24 / chroma_me=1 / trellis=2 / 8x8dct=1 / cqm=0 / deadzone=21,11 / fast_pskip=1 / chroma_qp_offset=-3 / threads=32 / lookahead_threads=4 / sliced_threads=0 / nr=0 / decimate=1 / interlaced=0 / bluray_compat=0 / constrained_intra=0 / bframes=3 / b_pyramid=2 / b_adapt=2 / b_bias=0 / direct=3 / weightb=1 / open_gop=0 / weightp=2 / keyint=250 / keyint_min=25 / scenecut=40 / intra_refresh=0 / rc_lookahead=50 / rc=2pass / mbtree=1 / bitrate=2500 / ratetol=1.0 / qcomp=0.60 / qpmin=0 / qpmax=69 / qpstep=4 / cplxblur=20.0 / qblur=0.5 / vbv_maxrate=31250 / vbv_bufsize=31250 / nal_hrd=none / filler=0 / ip_ratio=1.40 / aq=3:1.00
Default : Yes
Forced : No

Audio #1
ID : 2
Format : AC-3
Format/Info : Audio Coding 3
Format settings, Endianness : Big
Codec ID : A_AC3
Duration : 1 h 32 min
Bit rate mode : Constant
Bit rate : 640 kb/s
Channel(s) : 6 channels
Channel positions : Front: L C R, Side: L R, LFE
Sampling rate : 48.0 kHz
Frame rate : 31.250 FPS (1536 SPF)
Bit depth : 16 bits
Compression mode : Lossy
Delay relative to video : 83 ms
Stream size : 423 MiB (17%)
Title : Thai BluRay Master 5.1 @640 Kbps
Language : Thai
Service kind : Complete Main
Default : Yes
Forced : No

Audio #2
ID : 3
Format : AC-3
Format/Info : Audio Coding 3
Format settings, Endianness : Big
Codec ID : A_AC3
Duration : 1 h 32 min
Bit rate mode : Constant
Bit rate : 640 kb/s
Channel(s) : 6 channels
Channel positions : Front: L C R, Side: L R, LFE
Sampling rate : 48.0 kHz
Frame rate : 31.250 FPS (1536 SPF)
Bit depth : 16 bits
Compression mode : Lossy
Stream size : 423 MiB (17%)
Title : English 5.1 @640 Kbps
Language : English
Service kind : Complete Main
Default : No
Forced : No

Text #1
ID : 4
Format : VobSub
Muxing mode : zlib
Codec ID : S_VOBSUB
Codec ID/Info : Picture based subtitle format used on DVDs
Duration : 1 h 30 min
Bit rate : 3 625 b/s
Count of elements : 1148
Stream size : 2.34 MiB (0%)
Title : Thai 480p
Language : Thai
Default : No
Forced : No

Text #2
ID : 5
Format : VobSub
Muxing mode : zlib
Codec ID : S_VOBSUB
Codec ID/Info : Picture based subtitle format used on DVDs
Duration : 1 h 30 min
Bit rate : 6 477 b/s
Count of elements : 1148
Stream size : 4.19 MiB (0%)
Title : Thai 720p
Language : Thai
Default : No
Forced : No

Text #3
ID : 6
Format : VobSub
Muxing mode : zlib
Codec ID : S_VOBSUB
Codec ID/Info : Picture based subtitle format used on DVDs
Duration : 1 h 30 min
Bit rate : 10.9 kb/s
Count of elements : 1148
Stream size : 7.04 MiB (0%)
Title : Thai 1080p BluRay Master
Language : Thai
Default : Yes
Forced : No

Text #4
ID : 7
Format : PGS
Muxing mode : zlib
Codec ID : S_HDMV/PGS
Codec ID/Info : Picture based subtitle format used on BDs/HD-DVDs
Duration : 1 h 30 min
Bit rate : 37.2 kb/s
Count of elements : 2298
Stream size : 24.0 MiB (1%)
Title : Thai PGS BluRay Master
Language : Thai
Default : No
Forced : No

Text #5
ID : 8
Format : PGS
Muxing mode : zlib
Codec ID : S_HDMV/PGS
Codec ID/Info : Picture based subtitle format used on BDs/HD-DVDs
Duration : 1 h 28 min
Bit rate : 41.8 kb/s
Count of elements : 2382
Stream size : 26.6 MiB (1%)
Title : English
Language : English
Default : No
Forced : No

Menu
00:00:00.000 : :Chapter 1
00:04:59.400 : :Chapter 2
00:09:59.825 : :Chapter 3
00:14:59.624 : :Chapter 4
00:19:59.632 : :Chapter 5
00:25:00.057 : :Chapter 6
00:29:59.732 : :Chapter 7
00:34:59.364 : :Chapter 8
00:39:59.915 : :Chapter 9
00:44:59.631 : :Chapter 10
00:50:00.056 : :Chapter 11
00:54:59.313 : :Chapter 12
00:59:59.196 : :Chapter 13
01:04:59.705 : :Chapter 14
01:09:59.796 : :Chapter 15
01:14:59.596 : :Chapter 16
01:19:59.312 : :Chapter 17
01:24:59.862 : :Chapter 18
01:29:59.703 : :Chapter 19



Quote:







Quote:
Toy Story 3 (2010) ทอย สตอรี่ 3
เรื่องย่อ : จากทีมผู้อยู่เบื้องหลังผลงานแอนิเมชั่นสุดสร้างสรรค ์และประสบความสำเร็จไปทั่วโลกของดิสนีย์/พิกซาร์
ขอเชิญคุณกลับมาเปิดกล่องของเล่นอีกครั้งกับประสบการ ณ์ใหม่ที่จะไม่มีวันลืม ใน ทอย สตอรี่ 3 วู้ดดี้ (ให้เสียงโดย ทอม แฮงค์ส) บัซ ไลท์เยียร์ (ให้เสียงโดย ทิม อัลเลน)
และ พวกพ้องแก๊งของเล่นหน้าใหม่ บ้างก็เป็นพลาสติก บ้างก็เป็นผ้าขนปุย อาทิ เคน คู่หวานใจของบาร์บี้ (ให้เสียงโดย ไมเคิล คีตัน) ตุ๊กตาแม่หัวใจศิลปิน (ให้เสียงโดย ทิโมธี ดัลตัน)
และ คุณหมีน่ากอดกลิ่นสตอเบอร์รี่ (ให้เสียงโดย เน็ด บีตตี้) กับ ภาคที่ยิ่งใหญ่ที่สุด ดีที่สุด และสนุกที่สุด (สก็อตต์ แมนท์ซ, Access Hollywood)
เมื่อแอนดี้เตรียมตัวย้ายไปเรียนมหาวิทยาลัย วูดดี้ บัช เจสซี่ และบรรดาของเล่นผู้ซื่อสัตย์ของแอนดี้วิตกว่าแล้วพวก เขาจะเป็นอย่างไรต่อไป
แต่เมื่อความโกลาหลพาพวกเขาไปอยู่ในสถานรับเลี้ยงเด็ กซันนีไซด์ พวกเขาจึงได้พบกับเพื่อนใหม่ๆ และไม่ช้าก็พบว่าการผจญภัยที่แท้จริงเพิ่งเริ่มต้นขึ ้น
มาร่วมเดินทางที่สุดอัศจรรย์ใจไปกับตัวละครที่คุณรัก ในผลงานที่กลายเป็นประวัติศาสตร์ภาพยนตร์ และซึ้งใจไปกับมิตรภาพที่แท้จริง!!!



*ดู INFO Report คลิ๊ก!*Quote:

Toy Story 3 (2010) ทอย สตอรี่ 3
Video
ID : 1
Format : AVC
Format/Info : Advanced Video Codec
Format profile : [email protected]
Format settings, CABAC : Yes
Format settings, RefFrames : 4 frames
Codec ID : V_MPEG4/ISO/AVC
Duration : 1 h 42 min
Bit rate : 2 500 kb/s
Width : 1 920 pixels
Height : 1 080 pixels
Display aspect ratio : 16:9
Frame rate mode : Constant
Frame rate : 23.976 (23976/1000) FPS
Color space : YUV
Chroma subsampling : 4:2:0
Bit depth : 8 bits
Scan type : Progressive
Bits/(Pixel*Frame) : 0.050
Stream size : 1.79 GiB (66%)
Title : Toy.Story.3.2010.1080p.BluRay.x264.AC3.THM5.1_HeRM ineZ
Writing library : x264 core 152 r2851M ba24899
Encoding settings : cabac=1 / ref=4 / deblock=1:-1:-1 / analyse=0x3:0x113 / me=umh / subme=9 / psy=1 / psy_rd=1.00:0.15 / mixed_ref=1 / me_range=24 / chroma_me=1 / trellis=2 / 8x8dct=1 / cqm=0 / deadzone=21,11 / fast_pskip=1 / chroma_qp_offset=-3 / threads=32 / lookahead_threads=4 / sliced_threads=0 / nr=0 / decimate=1 / interlaced=0 / bluray_compat=0 / constrained_intra=0 / bframes=3 / b_pyramid=2 / b_adapt=2 / b_bias=0 / direct=3 / weightb=1 / open_gop=0 / weightp=2 / keyint=250 / keyint_min=25 / scenecut=40 / intra_refresh=0 / rc_lookahead=50 / rc=2pass / mbtree=1 / bitrate=2500 / ratetol=1.0 / qcomp=0.60 / qpmin=0 / qpmax=69 / qpstep=4 / cplxblur=20.0 / qblur=0.5 / vbv_maxrate=31250 / vbv_bufsize=31250 / nal_hrd=none / filler=0 / ip_ratio=1.40 / aq=3:1.00
Default : Yes
Forced : No

Audio #1
ID : 2
Format : AC-3
Format/Info : Audio Coding 3
Format settings, Endianness : Big
Codec ID : A_AC3
Duration : 1 h 42 min
Bit rate mode : Constant
Bit rate : 640 kb/s
Channel(s) : 6 channels
Channel positions : Front: L C R, Side: L R, LFE
Sampling rate : 48.0 kHz
Frame rate : 31.250 FPS (1536 SPF)
Bit depth : 16 bits
Compression mode : Lossy
Delay relative to video : 83 ms
Stream size : 469 MiB (17%)
Title : Thai BluRay Master 5.1 @640 Kbps
Language : Thai
Service kind : Complete Main
Default : Yes
Forced : No

Audio #2
ID : 3
Format : AC-3
Format/Info : Audio Coding 3
Format settings, Endianness : Big
Codec ID : A_AC3
Duration : 1 h 42 min
Bit rate mode : Constant
Bit rate : 640 kb/s
Channel(s) : 6 channels
Channel positions : Front: L C R, Side: L R, LFE
Sampling rate : 48.0 kHz
Frame rate : 31.250 FPS (1536 SPF)
Bit depth : 16 bits
Compression mode : Lossy
Stream size : 469 MiB (17%)
Title : English 5.1 @640 Kbps
Language : English
Service kind : Complete Main
Default : No
Forced : No

Text #1
ID : 4
Format : VobSub
Muxing mode : zlib
Codec ID : S_VOBSUB
Codec ID/Info : Picture based subtitle format used on DVDs
Duration : 1 h 36 min
Bit rate : 3 611 b/s
Count of elements : 1188
Stream size : 2.51 MiB (0%)
Title : Thai 480p
Language : Thai
Default : No
Forced : No

Text #2
ID : 5
Format : VobSub
Muxing mode : zlib
Codec ID : S_VOBSUB
Codec ID/Info : Picture based subtitle format used on DVDs
Duration : 1 h 36 min
Bit rate : 6 386 b/s
Count of elements : 1188
Stream size : 4.43 MiB (0%)
Title : Thai 720p
Language : Thai
Default : No
Forced : No

Text #3
ID : 6
Format : VobSub
Muxing mode : zlib
Codec ID : S_VOBSUB
Codec ID/Info : Picture based subtitle format used on DVDs
Duration : 1 h 36 min
Bit rate : 10.5 kb/s
Count of elements : 1188
Stream size : 7.27 MiB (0%)
Title : Thai 1080p BluRay Master
Language : Thai
Default : Yes
Forced : No

Text #4
ID : 7
Format : PGS
Muxing mode : zlib
Codec ID : S_HDMV/PGS
Codec ID/Info : Picture based subtitle format used on BDs/HD-DVDs
Duration : 1 h 36 min
Bit rate : 33.1 kb/s
Count of elements : 2376
Stream size : 22.9 MiB (1%)
Title : Thai PGS BluRay Master
Language : Thai
Default : No
Forced : No

Text #5
ID : 8
Format : PGS
Muxing mode : zlib
Codec ID : S_HDMV/PGS
Codec ID/Info : Picture based subtitle format used on BDs/HD-DVDs
Duration : 1 h 40 min
Bit rate : 41.1 kb/s
Count of elements : 2534
Stream size : 29.7 MiB (1%)
Title : English
Language : English
Default : No
Forced : No

Menu
00:00:00.000 : :Chapter 1
00:05:00.067 : :Chapter 2
00:09:59.157 : :Chapter 3
00:15:00.000 : :Chapter 4
00:20:00.091 : :Chapter 5
00:24:59.557 : :Chapter 6
00:29:59.690 : :Chapter 7
00:34:59.573 : :Chapter 8
00:39:59.998 : :Chapter 9
00:44:59.672 : :Chapter 10
00:50:00.014 : :Chapter 11
00:54:59.855 : :Chapter 12
00:59:59.113 : :Chapter 13
01:04:59.663 : :Chapter 14
01:09:59.546 : :Chapter 15
01:14:59.679 : :Chapter 16
01:19:59.270 : :Chapter 17
01:24:59.695 : :Chapter 18
01:29:59.244 : :Chapter 19
01:34:59.294 : :Chapter 20
01:39:59.219 : :Chapter 21



Quote:






Toy.Story.1995.1080p.BluRay.x264.AC3.THM5.1_HeRMin eZ.mkv - 2.2 GB
Toy.Story.2.1999.1080p.BluRay.x264.AC3.THM5.1_HeRM ineZ.mkv - 2.5 GB
Toy.Story.3.2010.1080p.BluRay.x264.AC3.THM5.1_HeRM ineZ.mkv - 2.7 GB


1 http://www.mekafile.com/dl.php?f=EZ7da5bVx2Zw
2 http://www.mekafile.com/dl.php?f=Y91a01bVx3di
3 http://www.mekafile.com/dl.php?f=2G0774bVx36K