[enthdmovieclub]The.One.2017.1080p.WEBRip.mkv
Format : Matroska
Format version : Version 4
File size : 3.61 GiB
Duration : 1 h 55 min
Overall bit rate : 4 462 kb/s
Movie name : up by @enthdmovieclub
Encoded date : UTC 2019-06-23 01:26:24
Writing application : mkvmerge v34.0.0 ('Sight and Seen') 64-bit
Writing library : libebml v1.3.7 + libmatroska v1.5.0

Video
ID : 1
Format : AVC
Format/Info : Advanced Video Codec
Format profile : [email protected]
Format settings : 1 Ref Frames
Format settings, CABAC : No
Format settings, Reference fra : 1 frame
Format settings, GOP : M=1, N=12
Codec ID : V_MPEG4/ISO/AVC
Duration : 1 h 55 min
Bit rate : 4 139 kb/s
Width : 1 920 pixels
Height : 1 080 pixels
Display aspect ratio : 16:9
Frame rate mode : Constant
Frame rate : 29.970 (29970/1000) FPS
Color space : YUV
Chroma subsampling : 4:2:0
Bit depth : 8 bits
Scan type : Progressive
Bits/(Pixel*Frame) : 0.067
Stream size : 3.35 GiB (93%)
Default : Yes
Forced : No

Audio #1
ID : 2
Format : AC-3
Format/Info : Audio Coding 3
Commercial name : Dolby Digital
Codec ID : A_AC3
Duration : 1 h 55 min
Bit rate mode : Constant
Bit rate : 128 kb/s
Channel(s) : 6 channels
Channel layout : L R C LFE Ls Rs
Sampling rate : 44.1 kHz
Frame rate : 28.711 FPS (1536 SPF)
Bit depth : 16 bits
Compression mode : Lossy
Stream size : 106 MiB (3%)
Title : 5.1 AC3-128k 106m
Language : Thai
Service kind : Complete Main
Default : Yes
Forced : No

Audio #2
ID : 3
Format : AC-3
Format/Info : Audio Coding 3
Commercial name : Dolby Digital
Codec ID : A_AC3
Duration : 1 h 55 min
Bit rate mode : Constant
Bit rate : 192 kb/s
Channel(s) : 6 channels
Channel layout : L R C LFE Ls Rs
Sampling rate : 44.1 kHz
Frame rate : 28.711 FPS (1536 SPF)
Bit depth : 16 bits
Compression mode : Lossy
Stream size : 159 MiB (4%)
Title : 5.1 AC3-Chi 192k 159m
Language : Chinese
Service kind : Complete Main
Default : No
Forced : No

Credit File: @Gold Cup




เรื่องราวของการแย่งชิงหนังสือการปรุงอาหารสุดตลกโปก ฮาระหว่างคนสองคน คนหนึ่งเป็นผู้ชายที่ไม่มีความรู้สึกกับทุกอย่างบนโล ก ส่วนอีกคนเป็นผู้หญิงที่มีชีวิตแสนลำบาก เรื่องราวระหว่างพวกเขาสองคนจะวุ่นวายและปั่นป่วนแค่ ไหนต้องติดตามชม

---------------------------------------------------------------------------------------------------------------

***ข้อแนะนำในการโหลดไฟล์จากเว็บต่างๆ***

###ควรใช้ IDM ในการโหลด และควรตั้งค่าเริ่มต้นเชื่อมต่อ ตั้งแต่ 8 ขึ้นไป ส่วนในกรณีที่ IDM ไม่ขึ้นตอนกดโหลดให้ติดตั้งส่วนขยายของ IDM ในเบราว์เซอร์ที่ใช้ ##



http://cornfile.com/1fsolp84j50o


>>สมัคร VIP cornfile <<

>> วิธีสมัคร VIP cornfile <<




1 PART

DOWNLOAD



1 PART

DOWNLOAD

ติดตามอัพเดตเรื่องอื่นๆได้ที่

https://enthdmovieclub.blogspot.com/